<?xml version="1.0" standalone="no"?>
<!DOCTYPE svg PUBLIC "-//W3C//DTD SVG 1.1//EN" "http://www.w3.org/Graphics/SVG/1.1/DTD/svg11.dtd" >
<svg xmlns="http://www.w3.org/2000/svg" xmlns:xlink="http://www.w3.org/1999/xlink" version="1.1">
<metadata>
Created by FontForge 20201107 at Tue Nov 24 10:50:40 2020
 By Jimmy Wärting
Copyright 2014 The Nunito Project Authors (https://github.com/googlefonts/nunito)
</metadata>
<defs>
<font id="Nunito-Bold" horiz-adv-x="600" >
  <font-face 
    font-family="Nunito"
    font-weight="700"
    font-stretch="normal"
    units-per-em="1000"
    panose-1="0 0 0 0 0 0 0 0 0 0"
    ascent="800"
    descent="-200"
    x-height="489"
    cap-height="705"
    bbox="-257.895 -278 1339 1055"
    underline-thickness="44"
    underline-position="-107"
    unicode-range="U+000D-FB02"
  />
<missing-glyph horiz-adv-x="500" 
d="M50 -180v885h400v-885h-400zM100 -130h300v785h-300v-785z" />
    <glyph glyph-name="fi" unicode="fi" horiz-adv-x="611" 
d="M486 589q-71 0 -71 66t71 66q72 0 72 -66q0 -31 -18.5 -48.5t-53.5 -17.5zM161 -8q-63 0 -63 64v339h-46q-50 0 -50 47t50 47h46v1q0 101 51 153t148 62l30 3q29 3 42.5 -10t14.5 -31.5t-8.5 -33.5t-27.5 -17l-24 -2q-53 -4 -77 -29t-24 -75v-21h261q62 0 62 -67v-361
q0 -32 -15.5 -50t-46.5 -18q-30 0 -46.5 18t-16.5 50v334h-198v-339q0 -64 -62 -64z" />
    <glyph glyph-name="fl" unicode="fl" horiz-adv-x="683" 
d="M161 -8q-63 0 -63 64v339h-46q-50 0 -50 47t50 47h46v1q0 103 52 154.5t150 60.5l34 3q26 2 38 -11t12.5 -31.5t-9.5 -33t-29 -16.5l-14 -1q-57 -4 -83 -29t-26 -76v-21h85q50 0 50 -47t-50 -47h-85v-339q0 -64 -62 -64zM596 -10q-167 0 -167 187v473q0 63 62 63
q63 0 63 -63v-467q0 -90 75 -90q8 0 15 0.5t14 1.5q14 2 19 -7.5t5 -38.5q0 -25 -10 -39t-33 -17q-21 -3 -43 -3z" />
    <glyph glyph-name=".notdef" horiz-adv-x="500" 
d="M50 -180v885h400v-885h-400zM100 -130h300v785h-300v-785z" />
    <glyph glyph-name="A" unicode="A" horiz-adv-x="744" 
d="M84 -8q-35 0 -50 24t1 58l264 585q13 29 31.5 41.5t42.5 12.5q23 0 41.5 -12.5t31.5 -41.5l265 -585q16 -35 2 -58.5t-48 -23.5q-28 0 -43.5 13.5t-27.5 41.5l-50 116h-344l-49 -116q-13 -29 -27 -42t-40 -13zM371 566l-127 -301h256l-127 301h-2z" />
    <glyph glyph-name="Aacute" unicode="&#xc1;" horiz-adv-x="744" 
d="M84 -8q-35 0 -50 24t1 58l264 585q13 29 31.5 41.5t42.5 12.5q23 0 41.5 -12.5t31.5 -41.5l265 -585q16 -35 2 -58.5t-48 -23.5q-28 0 -43.5 13.5t-27.5 41.5l-50 116h-344l-49 -116q-13 -29 -27 -42t-40 -13zM371 566l-127 -301h256l-127 301h-2zM424 771
q-12 -13 -26.5 -13.5t-26 8t-15 21.5t5.5 27l78 115q14 21 34 22t36.5 -10.5t21 -29t-11.5 -35.5z" />
    <glyph glyph-name="Abreve" unicode="&#x102;" horiz-adv-x="744" 
d="M84 -8q-35 0 -50 24t1 58l264 585q13 29 31.5 41.5t42.5 12.5q23 0 41.5 -12.5t31.5 -41.5l265 -585q16 -35 2 -58.5t-48 -23.5q-28 0 -43.5 13.5t-27.5 41.5l-50 116h-344l-49 -116q-13 -29 -27 -42t-40 -13zM371 566l-127 -301h256l-127 301h-2zM373 760
q-65 0 -112.5 34.5t-64.5 98.5q-5 20 4.5 33t23.5 14q21 2 31 -7.5t13 -21.5q10 -41 40.5 -58.5t64.5 -17.5q35 0 65 17.5t40 58.5q3 12 13 21.5t31 7.5q14 -1 23.5 -14t4.5 -33q-16 -64 -64 -98.5t-113 -34.5z" />
    <glyph glyph-name="uni1EAE" unicode="&#x1eae;" horiz-adv-x="744" 
d="M84 -8q-35 0 -50 24t1 58l264 585q13 29 31.5 41.5t42.5 12.5q23 0 41.5 -12.5t31.5 -41.5l265 -585q16 -35 2 -58.5t-48 -23.5q-28 0 -43.5 13.5t-27.5 41.5l-50 116h-344l-49 -116q-13 -29 -27 -42t-40 -13zM371 566l-127 -301h256l-127 301h-2zM406 887
q-14 -16 -32 -14t-27.5 16.5t0.5 32.5l51 92q12 21 31 23.5t35.5 -8t21.5 -28t-12 -36.5zM373 760q-65 0 -108.5 33t-56.5 87q-4 19 2.5 30.5t20.5 12.5q14 2 23.5 -3t14.5 -22q10 -30 36 -49t68 -19t68 19t36 49q5 17 14.5 22t23.5 3q14 -1 21 -12.5t2 -30.5
q-13 -54 -56.5 -87t-108.5 -33z" />
    <glyph glyph-name="uni1EB6" unicode="&#x1eb6;" horiz-adv-x="744" 
d="M84 -8q-35 0 -50 24t1 58l264 585q13 29 31.5 41.5t42.5 12.5q23 0 41.5 -12.5t31.5 -41.5l265 -585q16 -35 2 -58.5t-48 -23.5q-28 0 -43.5 13.5t-27.5 41.5l-50 116h-344l-49 -116q-13 -29 -27 -42t-40 -13zM371 566l-127 -301h256l-127 301h-2zM373 -209q-65 0 -65 63
q0 62 65 62q66 0 66 -62q0 -63 -66 -63zM373 760q-65 0 -112.5 34.5t-64.5 98.5q-5 20 4.5 33t23.5 14q21 2 31 -7.5t13 -21.5q10 -41 40.5 -58.5t64.5 -17.5q35 0 65 17.5t40 58.5q3 12 13 21.5t31 7.5q14 -1 23.5 -14t4.5 -33q-16 -64 -64 -98.5t-113 -34.5z" />
    <glyph glyph-name="uni1EB0" unicode="&#x1eb0;" horiz-adv-x="744" 
d="M84 -8q-35 0 -50 24t1 58l264 585q13 29 31.5 41.5t42.5 12.5q23 0 41.5 -12.5t31.5 -41.5l265 -585q16 -35 2 -58.5t-48 -23.5q-28 0 -43.5 13.5t-27.5 41.5l-50 116h-344l-49 -116q-13 -29 -27 -42t-40 -13zM371 566l-127 -301h256l-127 301h-2zM340 887l-68 78
q-16 19 -11.5 36.5t21 28t35.5 8t31 -23.5l51 -92q11 -18 1 -32.5t-27.5 -16.5t-32.5 14zM373 760q-65 0 -108.5 33t-56.5 87q-4 19 2.5 30.5t20.5 12.5q14 2 23.5 -3t14.5 -22q10 -30 36 -49t68 -19t68 19t36 49q5 17 14.5 22t23.5 3q14 -1 21 -12.5t2 -30.5
q-13 -54 -56.5 -87t-108.5 -33z" />
    <glyph glyph-name="uni1EB2" unicode="&#x1eb2;" horiz-adv-x="744" 
d="M84 -8q-35 0 -50 24t1 58l264 585q13 29 31.5 41.5t42.5 12.5q23 0 41.5 -12.5t31.5 -41.5l265 -585q16 -35 2 -58.5t-48 -23.5q-28 0 -43.5 13.5t-27.5 41.5l-50 116h-344l-49 -116q-13 -29 -27 -42t-40 -13zM371 566l-127 -301h256l-127 301h-2zM398 880
q-13 -8 -27.5 -4t-20 14t7.5 20q31 23 31 45q0 23 -36 23q-7 0 -15.5 -1t-17.5 -3q-28 -7 -36 15q-8 23 20 33q18 6 36.5 8t38.5 2q44 0 69 -14t25 -43t-23.5 -53.5t-51.5 -41.5zM373 760q-65 0 -108.5 33t-56.5 87q-4 19 2.5 30.5t20.5 12.5q14 2 23.5 -3t14.5 -22
q10 -30 36 -49t68 -19t68 19t36 49q5 17 14.5 22t23.5 3q14 -1 21 -12.5t2 -30.5q-13 -54 -56.5 -87t-108.5 -33z" />
    <glyph glyph-name="uni1EB4" unicode="&#x1eb4;" horiz-adv-x="744" 
d="M84 -8q-35 0 -50 24t1 58l264 585q13 29 31.5 41.5t42.5 12.5q23 0 41.5 -12.5t31.5 -41.5l265 -585q16 -35 2 -58.5t-48 -23.5q-28 0 -43.5 13.5t-27.5 41.5l-50 116h-344l-49 -116q-13 -29 -27 -42t-40 -13zM371 566l-127 -301h256l-127 301h-2zM232 920
q-14 1 -21.5 11t-3.5 26q10 37 36.5 56t63.5 19q27 0 49 -11t41.5 -22t38.5 -11q15 0 27 5.5t17 18.5q9 23 35 22q14 -1 22 -10.5t3 -26.5q-10 -37 -36.5 -56t-63.5 -19q-27 0 -49.5 11t-41.5 22t-38 11q-15 0 -27 -5.5t-17 -18.5q-9 -23 -35 -22zM373 760q-58 0 -99.5 23.5
t-58.5 58.5q-8 17 -3 28.5t19 15.5q15 5 24 2t18 -16q13 -19 38 -30.5t62 -11.5q38 0 62.5 11.5t37.5 30.5q9 13 18 16t24 -2q14 -4 19 -15.5t-3 -28.5q-17 -35 -58 -58.5t-100 -23.5z" />
    <glyph glyph-name="uni01CD" unicode="&#x1cd;" horiz-adv-x="744" 
d="M84 -8q-35 0 -50 24t1 58l264 585q13 29 31.5 41.5t42.5 12.5q23 0 41.5 -12.5t31.5 -41.5l265 -585q16 -35 2 -58.5t-48 -23.5q-28 0 -43.5 13.5t-27.5 41.5l-50 116h-344l-49 -116q-13 -29 -27 -42t-40 -13zM371 566l-127 -301h256l-127 301h-2zM373 754q-46 0 -73 39
l-73 102q-10 14 -6.5 27t15.5 20.5t26.5 6t26.5 -15.5l84 -98l85 98q16 19 35.5 16t29.5 -18.5t-4 -35.5l-72 -102q-27 -39 -74 -39z" />
    <glyph glyph-name="Acircumflex" unicode="&#xc2;" horiz-adv-x="744" 
d="M84 -8q-35 0 -50 24t1 58l264 585q13 29 31.5 41.5t42.5 12.5q23 0 41.5 -12.5t31.5 -41.5l265 -585q16 -35 2 -58.5t-48 -23.5q-28 0 -43.5 13.5t-27.5 41.5l-50 116h-344l-49 -116q-13 -29 -27 -42t-40 -13zM371 566l-127 -301h256l-127 301h-2zM289 771
q-16 -17 -36 -14t-29.5 18.5t3.5 34.5l73 101q27 40 73 40q45 0 74 -40l72 -101q14 -19 4.5 -34.5t-29 -18.5t-36.5 14l-85 98z" />
    <glyph glyph-name="uni1EA4" unicode="&#x1ea4;" horiz-adv-x="744" 
d="M84 -8q-35 0 -50 24t1 58l264 585q13 29 31.5 41.5t42.5 12.5q23 0 41.5 -12.5t31.5 -41.5l265 -585q16 -35 2 -58.5t-48 -23.5q-28 0 -43.5 13.5t-27.5 41.5l-50 116h-344l-49 -116q-13 -29 -27 -42t-40 -13zM371 566l-127 -301h256l-127 301h-2zM548 865
q-12 -15 -28 -13.5t-24.5 15.5t2.5 33l62 110q11 20 28 22.5t31.5 -6t19 -24.5t-9.5 -34zM292 769q-16 -18 -34 -15.5t-26.5 18t4.5 34.5l65 97q15 22 32.5 30.5t39.5 8.5q23 0 40.5 -8.5t31.5 -30.5l65 -97q13 -19 5 -34.5t-25.5 -18t-34.5 15.5l-82 91z" />
    <glyph glyph-name="uni1EAC" unicode="&#x1eac;" horiz-adv-x="744" 
d="M84 -8q-35 0 -50 24t1 58l264 585q13 29 31.5 41.5t42.5 12.5q23 0 41.5 -12.5t31.5 -41.5l265 -585q16 -35 2 -58.5t-48 -23.5q-28 0 -43.5 13.5t-27.5 41.5l-50 116h-344l-49 -116q-13 -29 -27 -42t-40 -13zM371 566l-127 -301h256l-127 301h-2zM373 -209q-65 0 -65 63
q0 62 65 62q66 0 66 -62q0 -63 -66 -63zM289 771q-16 -17 -36 -14t-29.5 18.5t3.5 34.5l73 101q27 40 73 40q45 0 74 -40l72 -101q14 -19 4.5 -34.5t-29 -18.5t-36.5 14l-85 98z" />
    <glyph glyph-name="uni1EA6" unicode="&#x1ea6;" horiz-adv-x="744" 
d="M84 -8q-35 0 -50 24t1 58l264 585q13 29 31.5 41.5t42.5 12.5q23 0 41.5 -12.5t31.5 -41.5l265 -585q16 -35 2 -58.5t-48 -23.5q-28 0 -43.5 13.5t-27.5 41.5l-50 116h-344l-49 -116q-13 -29 -27 -42t-40 -13zM371 566l-127 -301h256l-127 301h-2zM527 865l-81 103
q-14 18 -9.5 34t19 24.5t31.5 6t28 -22.5l62 -110q11 -19 2.5 -33t-24.5 -15.5t-28 13.5zM292 769q-16 -18 -34 -15.5t-26.5 18t4.5 34.5l65 97q15 22 32.5 30.5t39.5 8.5q23 0 40.5 -8.5t31.5 -30.5l65 -97q13 -19 5 -34.5t-25.5 -18t-34.5 15.5l-82 91z" />
    <glyph glyph-name="uni1EA8" unicode="&#x1ea8;" horiz-adv-x="744" 
d="M84 -8q-35 0 -50 24t1 58l264 585q13 29 31.5 41.5t42.5 12.5q23 0 41.5 -12.5t31.5 -41.5l265 -585q16 -35 2 -58.5t-48 -23.5q-28 0 -43.5 13.5t-27.5 41.5l-50 116h-344l-49 -116q-13 -29 -27 -42t-40 -13zM371 566l-127 -301h256l-127 301h-2zM534 865
q-13 -7 -26 -2.5t-16.5 15.5t8.5 21q16 13 25.5 24t9.5 24q0 24 -37 24q-7 0 -15.5 -1t-17.5 -3q-28 -7 -36 15q-8 25 21 34q17 5 35.5 7t38.5 2q44 0 68.5 -14t24.5 -45q0 -20 -13 -39.5t-32 -35t-38 -26.5zM292 769q-16 -18 -34 -15.5t-26.5 18t4.5 34.5l65 97
q15 22 32.5 30.5t39.5 8.5q23 0 40.5 -8.5t31.5 -30.5l65 -97q13 -19 5 -34.5t-25.5 -18t-34.5 15.5l-82 91z" />
    <glyph glyph-name="uni1EAA" unicode="&#x1eaa;" horiz-adv-x="744" 
d="M84 -8q-35 0 -50 24t1 58l264 585q13 29 31.5 41.5t42.5 12.5q23 0 41.5 -12.5t31.5 -41.5l265 -585q16 -35 2 -58.5t-48 -23.5q-28 0 -43.5 13.5t-27.5 41.5l-50 116h-344l-49 -116q-13 -29 -27 -42t-40 -13zM371 566l-127 -301h256l-127 301h-2zM232 922
q-14 1 -21.5 11t-3.5 26q10 37 36.5 56t63.5 19q27 0 49 -11t41.5 -22t38.5 -11q15 0 27 5.5t17 18.5q9 23 35 22q14 -1 22 -10.5t3 -26.5q-10 -37 -36.5 -56t-63.5 -19q-27 0 -49.5 11t-41.5 22t-38 11q-15 0 -27 -5.5t-17 -18.5q-9 -23 -35 -22zM283 763
q-16 -13 -31.5 -8.5t-21 18t6.5 27.5l59 70q17 20 36 27.5t41 7.5q23 0 42.5 -7.5t35.5 -27.5l58 -70q12 -14 6.5 -28t-20.5 -18.5t-32 9.5l-90 74z" />
    <glyph glyph-name="uni0200" unicode="&#x200;" horiz-adv-x="744" 
d="M84 -8q-35 0 -50 24t1 58l264 585q13 29 31.5 41.5t42.5 12.5q23 0 41.5 -12.5t31.5 -41.5l265 -585q16 -35 2 -58.5t-48 -23.5q-28 0 -43.5 13.5t-27.5 41.5l-50 116h-344l-49 -116q-13 -29 -27 -42t-40 -13zM371 566l-127 -301h256l-127 301h-2zM261 770l-87 112
q-15 20 -10 36.5t20.5 26t34 6t29.5 -24.5l65 -121q10 -18 1 -32t-24.5 -16.5t-28.5 13.5zM405 773l-79 109q-15 20 -9 37t22.5 25.5t35 5t28.5 -24.5l61 -122q9 -18 -1 -31.5t-27.5 -15t-30.5 16.5z" />
    <glyph glyph-name="Adieresis" unicode="&#xc4;" horiz-adv-x="744" 
d="M84 -8q-35 0 -50 24t1 58l264 585q13 29 31.5 41.5t42.5 12.5q23 0 41.5 -12.5t31.5 -41.5l265 -585q16 -35 2 -58.5t-48 -23.5q-28 0 -43.5 13.5t-27.5 41.5l-50 116h-344l-49 -116q-13 -29 -27 -42t-40 -13zM371 566l-127 -301h256l-127 301h-2zM468 786q-62 0 -62 62
q0 61 62 61q61 0 61 -61q0 -62 -61 -62zM279 786q-29 0 -45.5 16t-16.5 46q0 29 16.5 45t45.5 16q62 0 62 -61q0 -62 -62 -62z" />
    <glyph glyph-name="uni0226" unicode="&#x226;" horiz-adv-x="744" 
d="M84 -8q-35 0 -50 24t1 58l264 585q13 29 31.5 41.5t42.5 12.5q23 0 41.5 -12.5t31.5 -41.5l265 -585q16 -35 2 -58.5t-48 -23.5q-28 0 -43.5 13.5t-27.5 41.5l-50 116h-344l-49 -116q-13 -29 -27 -42t-40 -13zM371 566l-127 -301h256l-127 301h-2zM373 789q-65 0 -65 63
q0 62 65 62t65 -62q0 -63 -65 -63z" />
    <glyph glyph-name="uni1EA0" unicode="&#x1ea0;" horiz-adv-x="744" 
d="M84 -8q-35 0 -50 24t1 58l264 585q13 29 31.5 41.5t42.5 12.5q23 0 41.5 -12.5t31.5 -41.5l265 -585q16 -35 2 -58.5t-48 -23.5q-28 0 -43.5 13.5t-27.5 41.5l-50 116h-344l-49 -116q-13 -29 -27 -42t-40 -13zM371 566l-127 -301h256l-127 301h-2zM373 -209q-65 0 -65 63
q0 62 65 62q66 0 66 -62q0 -63 -66 -63z" />
    <glyph glyph-name="Agrave" unicode="&#xc0;" horiz-adv-x="744" 
d="M84 -8q-35 0 -50 24t1 58l264 585q13 29 31.5 41.5t42.5 12.5q23 0 41.5 -12.5t31.5 -41.5l265 -585q16 -35 2 -58.5t-48 -23.5q-28 0 -43.5 13.5t-27.5 41.5l-50 116h-344l-49 -116q-13 -29 -27 -42t-40 -13zM371 566l-127 -301h256l-127 301h-2zM323 771l-96 105
q-16 18 -11.5 35.5t21 29t36.5 10.5t34 -22l78 -115q9 -14 5.5 -27t-15 -21.5t-26 -8t-26.5 13.5z" />
    <glyph glyph-name="uni1EA2" unicode="&#x1ea2;" horiz-adv-x="744" 
d="M84 -8q-35 0 -50 24t1 58l264 585q13 29 31.5 41.5t42.5 12.5q23 0 41.5 -12.5t31.5 -41.5l265 -585q16 -35 2 -58.5t-48 -23.5q-28 0 -43.5 13.5t-27.5 41.5l-50 116h-344l-49 -116q-13 -29 -27 -42t-40 -13zM371 566l-127 -301h256l-127 301h-2zM373 757q-38 0 -38 26
q0 24 14 36.5t28 22.5t14 23q0 20 -40 20q-7 0 -16.5 -1t-18.5 -3q-34 -8 -42 15q-4 12 0.5 22.5t20.5 15.5q17 6 39.5 9t46.5 3q49 0 77 -17t28 -46q0 -22 -11 -35t-26 -22.5t-26 -20t-11 -28.5q0 -20 -39 -20z" />
    <glyph glyph-name="uni0202" unicode="&#x202;" horiz-adv-x="744" 
d="M84 -8q-35 0 -50 24t1 58l264 585q13 29 31.5 41.5t42.5 12.5q23 0 41.5 -12.5t31.5 -41.5l265 -585q16 -35 2 -58.5t-48 -23.5q-28 0 -43.5 13.5t-27.5 41.5l-50 116h-344l-49 -116q-13 -29 -27 -42t-40 -13zM371 566l-127 -301h256l-127 301h-2zM224 760
q-14 2 -23.5 14.5t-4.5 32.5q17 65 64.5 98.5t112.5 33.5t113 -33.5t64 -98.5q5 -20 -4.5 -32.5t-23.5 -14.5q-21 -2 -31 7.5t-13 21.5q-10 41 -40 58.5t-65 17.5q-34 0 -64 -17.5t-41 -58.5q-3 -12 -13 -21.5t-31 -7.5z" />
    <glyph glyph-name="Amacron" unicode="&#x100;" horiz-adv-x="744" 
d="M84 -8q-35 0 -50 24t1 58l264 585q13 29 31.5 41.5t42.5 12.5q23 0 41.5 -12.5t31.5 -41.5l265 -585q16 -35 2 -58.5t-48 -23.5q-28 0 -43.5 13.5t-27.5 41.5l-50 116h-344l-49 -116q-13 -29 -27 -42t-40 -13zM371 566l-127 -301h256l-127 301h-2zM235 806q-39 0 -39 37
t39 37h277q39 0 39 -37t-39 -37h-277z" />
    <glyph glyph-name="Aogonek" unicode="&#x104;" horiz-adv-x="744" 
d="M683 -195q-55 0 -86.5 28t-31.5 76q0 29 13.5 55t37.5 47q-7 7 -12 15.5t-10 20.5l-50 116h-344l-49 -116q-13 -29 -27 -42t-40 -13q-35 0 -50.5 24t0.5 58l265 585q13 29 31.5 41.5t42.5 12.5q23 0 41.5 -12.5t31.5 -41.5l265 -585q11 -25 7.5 -45.5t-20.5 -28.5
q-20 -10 -37 -30.5t-17 -46.5q0 -25 16 -38t40 -13q15 0 30 4q24 7 34 -6t6 -30.5t-24 -25.5q-16 -6 -32.5 -7.5t-30.5 -1.5zM371 566l-127 -301h256l-127 301h-2z" />
    <glyph glyph-name="Aring" unicode="&#xc5;" horiz-adv-x="744" 
d="M84 -8q-35 0 -50 24t1 58l264 585q13 29 31.5 41.5t42.5 12.5q23 0 41.5 -12.5t31.5 -41.5l265 -585q16 -35 2 -58.5t-48 -23.5q-28 0 -43.5 13.5t-27.5 41.5l-50 116h-344l-49 -116q-13 -29 -27 -42t-40 -13zM371 566l-127 -301h256l-127 301h-2zM373 755
q-35 0 -64 16.5t-45.5 44.5t-16.5 62q0 52 36.5 87t89.5 35t89.5 -35t36.5 -87q0 -34 -16.5 -62t-45 -44.5t-64.5 -16.5zM373 812q29 0 47 19t18 47t-18 46.5t-47 18.5q-28 0 -46.5 -18.5t-18.5 -46.5t18.5 -47t46.5 -19z" />
    <glyph glyph-name="Aringacute" unicode="&#x1fa;" horiz-adv-x="744" 
d="M84 -8q-35 0 -50 24t1 58l264 585q13 29 31.5 41.5t42.5 12.5q23 0 41.5 -12.5t31.5 -41.5l265 -585q16 -35 2 -58.5t-48 -23.5q-28 0 -43.5 13.5t-27.5 41.5l-50 116h-344l-49 -116q-13 -29 -27 -42t-40 -13zM371 566l-127 -301h256l-127 301h-2zM373 755
q-51 0 -86 34.5t-35 83.5q0 50 35 83.5t86 33.5q35 0 64 -17l68 63q13 12 26.5 11t22.5 -10.5t10 -22.5t-12 -24l-72 -62q14 -25 14 -55q0 -49 -35 -83.5t-86 -34.5zM373 807q29 0 47 19t18 47t-18 46.5t-47 18.5q-28 0 -46.5 -18.5t-18.5 -46.5t18.5 -47t46.5 -19z" />
    <glyph glyph-name="Atilde" unicode="&#xc3;" horiz-adv-x="744" 
d="M84 -8q-35 0 -50 24t1 58l264 585q13 29 31.5 41.5t42.5 12.5q23 0 41.5 -12.5t31.5 -41.5l265 -585q16 -35 2 -58.5t-48 -23.5q-28 0 -43.5 13.5t-27.5 41.5l-50 116h-344l-49 -116q-13 -29 -27 -42t-40 -13zM371 566l-127 -301h256l-127 301h-2zM184 769q-16 1 -25 11
t-5 27q12 56 46.5 86.5t83.5 30.5q28 0 52 -10t46 -23t42.5 -23t40.5 -10q26 0 41.5 13.5t20.5 33.5q8 28 35 26q16 -1 25 -11t5 -27q-12 -56 -45.5 -86.5t-83.5 -30.5q-28 0 -52.5 10t-46.5 23t-42.5 23t-40.5 10q-25 0 -41 -13.5t-21 -33.5q-8 -28 -35 -26z" />
    <glyph glyph-name="AE" unicode="&#xc6;" horiz-adv-x="993" 
d="M54 -8q-43 0 -53.5 25t8.5 55l371 598q21 35 64 35h452q53 0 53 -50q0 -52 -53 -52h-356l42 -194h293q53 0 53 -51t-53 -51h-270l44 -205h247q53 0 53 -51t-53 -51h-292q-47 0 -58 47l-25 116h-324l-78 -131q-12 -19 -26.5 -29.5t-38.5 -10.5zM433 562l-177 -297h243
l-64 297h-2z" />
    <glyph glyph-name="AEacute" unicode="&#x1fc;" horiz-adv-x="993" 
d="M54 -8q-43 0 -53.5 25t8.5 55l371 598q21 35 64 35h452q53 0 53 -50q0 -52 -53 -52h-356l42 -194h293q53 0 53 -51t-53 -51h-270l44 -205h247q53 0 53 -51t-53 -51h-292q-47 0 -58 47l-25 116h-324l-78 -131q-12 -19 -26.5 -29.5t-38.5 -10.5zM433 562l-177 -297h243
l-64 297h-2zM539 771q-12 -13 -26.5 -13.5t-26 8t-15 21.5t5.5 27l78 115q14 21 34 22t36.5 -10.5t21 -29t-11.5 -35.5z" />
    <glyph glyph-name="B" unicode="B" horiz-adv-x="688" 
d="M145 0q-68 0 -68 68v569q0 68 68 68h240q111 0 172 -48.5t61 -134.5q0 -57 -29 -98t-80 -60q60 -17 93.5 -59.5t33.5 -107.5q0 -94 -63.5 -145.5t-176.5 -51.5h-251zM200 406h163q131 0 131 101t-131 101h-163v-202zM200 97h180q132 0 132 106t-132 106h-180v-212z" />
    <glyph glyph-name="uni0181" unicode="&#x181;" horiz-adv-x="838" 
d="M295 0q-68 0 -68 68v546h-26q-96 0 -96 -92v-16q0 -16 -12.5 -31t-39.5 -15t-40 16t-13 33v18q0 86 52.5 132t155.5 46h327q111 0 172 -48.5t61 -134.5q0 -57 -29 -98t-80 -60q60 -17 93.5 -59.5t33.5 -107.5q0 -94 -63.5 -145.5t-176.5 -51.5h-251zM350 406h163
q131 0 131 101t-131 101h-163v-202zM350 97h180q132 0 132 106t-132 106h-180v-212z" />
    <glyph glyph-name="C" unicode="C" horiz-adv-x="680" 
d="M405 -10q-110 0 -188.5 44.5t-120.5 126t-42 192.5t42 192t120.5 125.5t188.5 44.5q55 0 108 -14t93 -40q26 -17 31 -40.5t-6 -43t-33 -26t-49 11.5q-31 20 -67 29t-73 9q-107 0 -163 -64.5t-56 -183.5t56 -184t163 -65q38 0 75 9.5t70 29.5q27 17 48 11t31.5 -24.5
t6.5 -40.5t-27 -39q-40 -29 -95.5 -44.5t-112.5 -15.5z" />
    <glyph glyph-name="Cacute" unicode="&#x106;" horiz-adv-x="680" 
d="M405 -10q-110 0 -188.5 44.5t-120.5 126t-42 192.5t42 192t120.5 125.5t188.5 44.5q55 0 108 -14t93 -40q26 -17 31 -40.5t-6 -43t-33 -26t-49 11.5q-31 20 -67 29t-73 9q-107 0 -163 -64.5t-56 -183.5t56 -184t163 -65q38 0 75 9.5t70 29.5q27 17 48 11t31.5 -24.5
t6.5 -40.5t-27 -39q-40 -29 -95.5 -44.5t-112.5 -15.5zM443 771q-12 -13 -26.5 -13.5t-26 8t-15 21.5t5.5 27l78 115q14 21 34 22t36.5 -10.5t21 -29t-11.5 -35.5z" />
    <glyph glyph-name="Ccaron" unicode="&#x10c;" horiz-adv-x="680" 
d="M405 -10q-110 0 -188.5 44.5t-120.5 126t-42 192.5t42 192t120.5 125.5t188.5 44.5q55 0 108 -14t93 -40q26 -17 31 -40.5t-6 -43t-33 -26t-49 11.5q-31 20 -67 29t-73 9q-107 0 -163 -64.5t-56 -183.5t56 -184t163 -65q38 0 75 9.5t70 29.5q27 17 48 11t31.5 -24.5
t6.5 -40.5t-27 -39q-40 -29 -95.5 -44.5t-112.5 -15.5zM392 754q-46 0 -73 39l-73 102q-10 14 -6.5 27t15.5 20.5t26.5 6t26.5 -15.5l84 -98l85 98q16 19 35.5 16t29.5 -18.5t-4 -35.5l-72 -102q-27 -39 -74 -39z" />
    <glyph glyph-name="Ccedilla" unicode="&#xc7;" horiz-adv-x="680" 
d="M405 -10q-110 0 -188.5 44.5t-120.5 126t-42 192.5t42 192t120.5 125.5t188.5 44.5q55 0 108 -14t93 -40q26 -17 31 -40.5t-6 -43t-33 -26t-49 11.5q-31 20 -67 29t-73 9q-107 0 -163 -64.5t-56 -183.5t56 -184t163 -65q38 0 75 9.5t70 29.5q27 17 48 11t31.5 -24.5
t6.5 -40.5t-27 -39q-40 -29 -95.5 -44.5t-112.5 -15.5zM392 -195q-19 0 -40 2.5t-38 8.5q-20 7 -23 24t8.5 29t31.5 4q23 -8 51 -8q54 0 54 30q0 23 -37 23q-7 0 -14.5 -0.5t-15.5 -2.5q-14 -4 -23 3q-8 7 -5 26l11 76h67l-10 -58q6 1 11 1q41 0 66 -19t25 -53
q0 -39 -33 -62.5t-86 -23.5z" />
    <glyph glyph-name="uni1E08" unicode="&#x1e08;" horiz-adv-x="680" 
d="M405 -10q-110 0 -188.5 44.5t-120.5 126t-42 192.5t42 192t120.5 125.5t188.5 44.5q55 0 108 -14t93 -40q26 -17 31 -40.5t-6 -43t-33 -26t-49 11.5q-31 20 -67 29t-73 9q-107 0 -163 -64.5t-56 -183.5t56 -184t163 -65q38 0 75 9.5t70 29.5q27 17 48 11t31.5 -24.5
t6.5 -40.5t-27 -39q-40 -29 -95.5 -44.5t-112.5 -15.5zM392 -195q-19 0 -40 2.5t-38 8.5q-20 7 -23 24t8.5 29t31.5 4q23 -8 51 -8q54 0 54 30q0 23 -37 23q-7 0 -14.5 -0.5t-15.5 -2.5q-14 -4 -23 3q-8 7 -5 26l11 76h67l-10 -58q6 1 11 1q41 0 66 -19t25 -53
q0 -39 -33 -62.5t-86 -23.5zM443 771q-12 -13 -26.5 -13.5t-26 8t-15 21.5t5.5 27l78 115q14 21 34 22t36.5 -10.5t21 -29t-11.5 -35.5z" />
    <glyph glyph-name="Ccircumflex" unicode="&#x108;" horiz-adv-x="680" 
d="M405 -10q-110 0 -188.5 44.5t-120.5 126t-42 192.5t42 192t120.5 125.5t188.5 44.5q55 0 108 -14t93 -40q26 -17 31 -40.5t-6 -43t-33 -26t-49 11.5q-31 20 -67 29t-73 9q-107 0 -163 -64.5t-56 -183.5t56 -184t163 -65q38 0 75 9.5t70 29.5q27 17 48 11t31.5 -24.5
t6.5 -40.5t-27 -39q-40 -29 -95.5 -44.5t-112.5 -15.5zM308 771q-16 -17 -36 -14t-29.5 18.5t3.5 34.5l73 101q27 40 73 40q45 0 74 -40l72 -101q14 -19 4.5 -34.5t-29 -18.5t-36.5 14l-85 98z" />
    <glyph glyph-name="Cdotaccent" unicode="&#x10a;" horiz-adv-x="680" 
d="M405 -10q-110 0 -188.5 44.5t-120.5 126t-42 192.5t42 192t120.5 125.5t188.5 44.5q55 0 108 -14t93 -40q26 -17 31 -40.5t-6 -43t-33 -26t-49 11.5q-31 20 -67 29t-73 9q-107 0 -163 -64.5t-56 -183.5t56 -184t163 -65q38 0 75 9.5t70 29.5q27 17 48 11t31.5 -24.5
t6.5 -40.5t-27 -39q-40 -29 -95.5 -44.5t-112.5 -15.5zM392 789q-65 0 -65 63q0 62 65 62t65 -62q0 -63 -65 -63z" />
    <glyph glyph-name="D" unicode="D" horiz-adv-x="762" 
d="M145 0q-68 0 -68 68v569q0 68 68 68h194q177 0 273.5 -91t96.5 -261q0 -169 -96.5 -261t-273.5 -92h-194zM205 106h126q244 0 244 247q0 246 -244 246h-126v-493z" />
    <glyph glyph-name="uni01C4" unicode="&#x1c4;" horiz-adv-x="1352" 
d="M145 0q-68 0 -68 68v569q0 68 68 68h194q177 0 273.5 -91t96.5 -261q0 -169 -96.5 -261t-273.5 -92h-194zM205 106h126q244 0 244 247q0 246 -244 246h-126v-493zM853 0q-33 0 -49.5 17.5t-14 45.5t24.5 58l352 477h-323q-57 0 -57 54q0 53 57 53h414q33 0 49.5 -17.5
t14.5 -45t-25 -58.5l-352 -477h338q57 0 57 -53q0 -54 -57 -54h-429zM1060 754q-46 0 -73 39l-73 102q-10 14 -6.5 27t15.5 20.5t26.5 6t26.5 -15.5l84 -98l85 98q16 19 35.5 16t29.5 -18.5t-4 -35.5l-72 -102q-27 -39 -74 -39z" />
    <glyph glyph-name="Eth" unicode="&#xd0;" horiz-adv-x="762" 
d="M145 0q-68 0 -68 68v569q0 68 68 68h194q177 0 273.5 -91t96.5 -261q0 -169 -96.5 -261t-273.5 -92h-194zM205 106h126q244 0 244 247q0 246 -244 246h-126v-493zM32 310q-49 0 -49 47t49 47h323q49 0 49 -47t-49 -47h-323z" />
    <glyph glyph-name="Dcaron" unicode="&#x10e;" horiz-adv-x="762" 
d="M145 0q-68 0 -68 68v569q0 68 68 68h194q177 0 273.5 -91t96.5 -261q0 -169 -96.5 -261t-273.5 -92h-194zM205 106h126q244 0 244 247q0 246 -244 246h-126v-493zM379 754q-46 0 -73 39l-73 102q-10 14 -6.5 27t15.5 20.5t26.5 6t26.5 -15.5l84 -98l85 98q16 19 35.5 16
t29.5 -18.5t-4 -35.5l-72 -102q-27 -39 -74 -39z" />
    <glyph glyph-name="Dcroat" unicode="&#x110;" horiz-adv-x="762" 
d="M145 0q-68 0 -68 68v569q0 68 68 68h194q177 0 273.5 -91t96.5 -261q0 -169 -96.5 -261t-273.5 -92h-194zM205 106h126q244 0 244 247q0 246 -244 246h-126v-493zM32 310q-49 0 -49 47t49 47h323q49 0 49 -47t-49 -47h-323z" />
    <glyph glyph-name="uni1E0C" unicode="&#x1e0c;" horiz-adv-x="762" 
d="M145 0q-68 0 -68 68v569q0 68 68 68h194q177 0 273.5 -91t96.5 -261q0 -169 -96.5 -261t-273.5 -92h-194zM205 106h126q244 0 244 247q0 246 -244 246h-126v-493zM379 -209q-65 0 -65 63q0 62 65 62q66 0 66 -62q0 -63 -66 -63z" />
    <glyph glyph-name="uni018A" unicode="&#x18a;" horiz-adv-x="913" 
d="M295 0q-68 0 -68 68v546h-26q-96 0 -96 -92v-16q0 -16 -12.5 -31t-39.5 -15t-40 16t-13 33v18q0 86 51.5 132t151.5 46h286q177 0 273.5 -91t96.5 -261q0 -169 -96.5 -261t-273.5 -92h-194zM355 106h126q244 0 244 247q0 246 -244 246h-126v-493z" />
    <glyph glyph-name="uni1E0E" unicode="&#x1e0e;" horiz-adv-x="762" 
d="M145 0q-68 0 -68 68v569q0 68 68 68h194q177 0 273.5 -91t96.5 -261q0 -169 -96.5 -261t-273.5 -92h-194zM205 106h126q244 0 244 247q0 246 -244 246h-126v-493zM256 -165q-39 0 -39 37t39 37h247q39 0 39 -37t-39 -37h-247z" />
    <glyph glyph-name="uni01C5" unicode="&#x1c5;" horiz-adv-x="1236" 
d="M145 0q-68 0 -68 68v569q0 68 68 68h194q177 0 273.5 -91t96.5 -261q0 -169 -96.5 -261t-273.5 -92h-194zM205 106h126q244 0 244 247q0 246 -244 246h-126v-493zM857 0q-26 0 -39 16.5t-11 39.5t21 44l235 295h-212q-48 0 -48 47t48 47h296q30 0 44.5 -16t13 -38.5
t-20.5 -43.5l-238 -297h224q48 0 48 -47t-48 -47h-313zM1005 536q-45 0 -70 47l-72 131q-9 16 -4 29t17 19.5t25.5 4.5t22.5 -16l81 -126l81 126q9 14 22.5 16t25.5 -4.5t17 -19.5t-4 -29l-71 -131q-25 -47 -71 -47z" />
    <glyph glyph-name="E" unicode="E" horiz-adv-x="597" 
d="M145 0q-68 0 -68 68v569q0 68 68 68h357q52 0 52 -50q0 -52 -52 -52h-302v-194h280q52 0 52 -51t-52 -51h-280v-205h302q52 0 52 -51t-52 -51h-357z" />
    <glyph glyph-name="Eacute" unicode="&#xc9;" horiz-adv-x="597" 
d="M145 0q-68 0 -68 68v569q0 68 68 68h357q52 0 52 -50q0 -52 -52 -52h-302v-194h280q52 0 52 -51t-52 -51h-280v-205h302q52 0 52 -51t-52 -51h-357zM379 771q-12 -13 -26.5 -13.5t-26 8t-15 21.5t5.5 27l78 115q14 21 34 22t36.5 -10.5t21 -29t-11.5 -35.5z" />
    <glyph glyph-name="Ebreve" unicode="&#x114;" horiz-adv-x="597" 
d="M145 0q-68 0 -68 68v569q0 68 68 68h357q52 0 52 -50q0 -52 -52 -52h-302v-194h280q52 0 52 -51t-52 -51h-280v-205h302q52 0 52 -51t-52 -51h-357zM328 760q-65 0 -112.5 34.5t-64.5 98.5q-5 20 4.5 33t23.5 14q21 2 31 -7.5t13 -21.5q10 -41 40.5 -58.5t64.5 -17.5
q35 0 65 17.5t40 58.5q3 12 13 21.5t31 7.5q14 -1 23.5 -14t4.5 -33q-16 -64 -64 -98.5t-113 -34.5z" />
    <glyph glyph-name="Ecaron" unicode="&#x11a;" horiz-adv-x="597" 
d="M145 0q-68 0 -68 68v569q0 68 68 68h357q52 0 52 -50q0 -52 -52 -52h-302v-194h280q52 0 52 -51t-52 -51h-280v-205h302q52 0 52 -51t-52 -51h-357zM328 754q-46 0 -73 39l-73 102q-10 14 -6.5 27t15.5 20.5t26.5 6t26.5 -15.5l84 -98l85 98q16 19 35.5 16t29.5 -18.5
t-4 -35.5l-72 -102q-27 -39 -74 -39z" />
    <glyph glyph-name="uni0228" unicode="&#x228;" horiz-adv-x="597" 
d="M145 0q-68 0 -68 68v569q0 68 68 68h357q52 0 52 -50q0 -52 -52 -52h-302v-194h280q52 0 52 -51t-52 -51h-280v-205h302q52 0 52 -51t-52 -51h-357zM329 -195q-19 0 -40 2.5t-38 8.5q-20 7 -23 24t8.5 29t31.5 4q23 -8 51 -8q54 0 54 30q0 23 -37 23q-7 0 -14.5 -0.5
t-15.5 -2.5q-14 -4 -23 3q-8 7 -5 26l11 76h67l-10 -58q6 1 11 1q41 0 66 -19t25 -53q0 -39 -33 -62.5t-86 -23.5z" />
    <glyph glyph-name="uni1E1C" unicode="&#x1e1c;" horiz-adv-x="597" 
d="M145 0q-68 0 -68 68v569q0 68 68 68h357q52 0 52 -50q0 -52 -52 -52h-302v-194h280q52 0 52 -51t-52 -51h-280v-205h302q52 0 52 -51t-52 -51h-357zM329 -195q-19 0 -40 2.5t-38 8.5q-20 7 -23 24t8.5 29t31.5 4q23 -8 51 -8q54 0 54 30q0 23 -37 23q-7 0 -14.5 -0.5
t-15.5 -2.5q-14 -4 -23 3q-8 7 -5 26l11 76h67l-10 -58q6 1 11 1q41 0 66 -19t25 -53q0 -39 -33 -62.5t-86 -23.5zM328 760q-65 0 -112.5 34.5t-64.5 98.5q-5 20 4.5 33t23.5 14q21 2 31 -7.5t13 -21.5q10 -41 40.5 -58.5t64.5 -17.5q35 0 65 17.5t40 58.5q3 12 13 21.5
t31 7.5q14 -1 23.5 -14t4.5 -33q-16 -64 -64 -98.5t-113 -34.5z" />
    <glyph glyph-name="Ecircumflex" unicode="&#xca;" horiz-adv-x="597" 
d="M145 0q-68 0 -68 68v569q0 68 68 68h357q52 0 52 -50q0 -52 -52 -52h-302v-194h280q52 0 52 -51t-52 -51h-280v-205h302q52 0 52 -51t-52 -51h-357zM244 771q-16 -17 -36 -14t-29.5 18.5t3.5 34.5l73 101q27 40 73 40q45 0 74 -40l72 -101q14 -19 4.5 -34.5t-29 -18.5
t-36.5 14l-85 98z" />
    <glyph glyph-name="uni1EBE" unicode="&#x1ebe;" horiz-adv-x="597" 
d="M145 0q-68 0 -68 68v569q0 68 68 68h357q52 0 52 -50q0 -52 -52 -52h-302v-194h280q52 0 52 -51t-52 -51h-280v-205h302q52 0 52 -51t-52 -51h-357zM503 865q-12 -15 -28 -13.5t-24.5 15.5t2.5 33l62 110q11 20 28 22.5t31.5 -6t19 -24.5t-9.5 -34zM247 769
q-16 -18 -34 -15.5t-26.5 18t4.5 34.5l65 97q15 22 32.5 30.5t39.5 8.5q23 0 40.5 -8.5t31.5 -30.5l65 -97q13 -19 5 -34.5t-25.5 -18t-34.5 15.5l-82 91z" />
    <glyph glyph-name="uni1EC6" unicode="&#x1ec6;" horiz-adv-x="597" 
d="M145 0q-68 0 -68 68v569q0 68 68 68h357q52 0 52 -50q0 -52 -52 -52h-302v-194h280q52 0 52 -51t-52 -51h-280v-205h302q52 0 52 -51t-52 -51h-357zM328 -209q-65 0 -65 63q0 62 65 62q66 0 66 -62q0 -63 -66 -63zM244 771q-16 -17 -36 -14t-29.5 18.5t3.5 34.5l73 101
q27 40 73 40q45 0 74 -40l72 -101q14 -19 4.5 -34.5t-29 -18.5t-36.5 14l-85 98z" />
    <glyph glyph-name="uni1EC0" unicode="&#x1ec0;" horiz-adv-x="597" 
d="M145 0q-68 0 -68 68v569q0 68 68 68h357q52 0 52 -50q0 -52 -52 -52h-302v-194h280q52 0 52 -51t-52 -51h-280v-205h302q52 0 52 -51t-52 -51h-357zM482 865l-81 103q-14 18 -9.5 34t19 24.5t31.5 6t28 -22.5l62 -110q11 -19 2.5 -33t-24.5 -15.5t-28 13.5zM247 769
q-16 -18 -34 -15.5t-26.5 18t4.5 34.5l65 97q15 22 32.5 30.5t39.5 8.5q23 0 40.5 -8.5t31.5 -30.5l65 -97q13 -19 5 -34.5t-25.5 -18t-34.5 15.5l-82 91z" />
    <glyph glyph-name="uni1EC2" unicode="&#x1ec2;" horiz-adv-x="597" 
d="M145 0q-68 0 -68 68v569q0 68 68 68h357q52 0 52 -50q0 -52 -52 -52h-302v-194h280q52 0 52 -51t-52 -51h-280v-205h302q52 0 52 -51t-52 -51h-357zM489 865q-13 -7 -26 -2.5t-16.5 15.5t8.5 21q16 13 25.5 24t9.5 24q0 24 -37 24q-7 0 -15.5 -1t-17.5 -3q-28 -7 -36 15
q-8 25 21 34q17 5 35.5 7t38.5 2q44 0 68.5 -14t24.5 -45q0 -20 -13 -39.5t-32 -35t-38 -26.5zM247 769q-16 -18 -34 -15.5t-26.5 18t4.5 34.5l65 97q15 22 32.5 30.5t39.5 8.5q23 0 40.5 -8.5t31.5 -30.5l65 -97q13 -19 5 -34.5t-25.5 -18t-34.5 15.5l-82 91z" />
    <glyph glyph-name="uni1EC4" unicode="&#x1ec4;" horiz-adv-x="597" 
d="M145 0q-68 0 -68 68v569q0 68 68 68h357q52 0 52 -50q0 -52 -52 -52h-302v-194h280q52 0 52 -51t-52 -51h-280v-205h302q52 0 52 -51t-52 -51h-357zM187 922q-14 1 -21.5 11t-3.5 26q10 37 36.5 56t63.5 19q27 0 49 -11t41.5 -22t38.5 -11q15 0 27 5.5t17 18.5
q9 23 35 22q14 -1 22 -10.5t3 -26.5q-10 -37 -36.5 -56t-63.5 -19q-27 0 -49.5 11t-41.5 22t-38 11q-15 0 -27 -5.5t-17 -18.5q-9 -23 -35 -22zM238 763q-16 -13 -31.5 -8.5t-21 18t6.5 27.5l59 70q17 20 36 27.5t41 7.5q23 0 42.5 -7.5t35.5 -27.5l58 -70q12 -14 6.5 -28
t-20.5 -18.5t-32 9.5l-90 74z" />
    <glyph glyph-name="uni0204" unicode="&#x204;" horiz-adv-x="597" 
d="M145 0q-68 0 -68 68v569q0 68 68 68h357q52 0 52 -50q0 -52 -52 -52h-302v-194h280q52 0 52 -51t-52 -51h-280v-205h302q52 0 52 -51t-52 -51h-357zM216 770l-87 112q-15 20 -10 36.5t20.5 26t34 6t29.5 -24.5l65 -121q10 -18 1 -32t-24.5 -16.5t-28.5 13.5zM360 773
l-79 109q-15 20 -9 37t22.5 25.5t35 5t28.5 -24.5l61 -122q9 -18 -1 -31.5t-27.5 -15t-30.5 16.5z" />
    <glyph glyph-name="Edieresis" unicode="&#xcb;" horiz-adv-x="597" 
d="M145 0q-68 0 -68 68v569q0 68 68 68h357q52 0 52 -50q0 -52 -52 -52h-302v-194h280q52 0 52 -51t-52 -51h-280v-205h302q52 0 52 -51t-52 -51h-357zM423 786q-62 0 -62 62q0 61 62 61q61 0 61 -61q0 -62 -61 -62zM234 786q-29 0 -45.5 16t-16.5 46q0 29 16.5 45t45.5 16
q62 0 62 -61q0 -62 -62 -62z" />
    <glyph glyph-name="Edotaccent" unicode="&#x116;" horiz-adv-x="597" 
d="M145 0q-68 0 -68 68v569q0 68 68 68h357q52 0 52 -50q0 -52 -52 -52h-302v-194h280q52 0 52 -51t-52 -51h-280v-205h302q52 0 52 -51t-52 -51h-357zM328 789q-65 0 -65 63q0 62 65 62t65 -62q0 -63 -65 -63z" />
    <glyph glyph-name="uni1EB8" unicode="&#x1eb8;" horiz-adv-x="597" 
d="M145 0q-68 0 -68 68v569q0 68 68 68h357q52 0 52 -50q0 -52 -52 -52h-302v-194h280q52 0 52 -51t-52 -51h-280v-205h302q52 0 52 -51t-52 -51h-357zM328 -209q-65 0 -65 63q0 62 65 62q66 0 66 -62q0 -63 -66 -63z" />
    <glyph glyph-name="Egrave" unicode="&#xc8;" horiz-adv-x="597" 
d="M145 0q-68 0 -68 68v569q0 68 68 68h357q52 0 52 -50q0 -52 -52 -52h-302v-194h280q52 0 52 -51t-52 -51h-280v-205h302q52 0 52 -51t-52 -51h-357zM278 771l-96 105q-16 18 -11.5 35.5t21 29t36.5 10.5t34 -22l78 -115q9 -14 5.5 -27t-15 -21.5t-26 -8t-26.5 13.5z" />
    <glyph glyph-name="uni1EBA" unicode="&#x1eba;" horiz-adv-x="597" 
d="M145 0q-68 0 -68 68v569q0 68 68 68h357q52 0 52 -50q0 -52 -52 -52h-302v-194h280q52 0 52 -51t-52 -51h-280v-205h302q52 0 52 -51t-52 -51h-357zM328 757q-38 0 -38 26q0 24 14 36.5t28 22.5t14 23q0 20 -40 20q-7 0 -16.5 -1t-18.5 -3q-34 -8 -42 15q-4 12 0.5 22.5
t20.5 15.5q17 6 39.5 9t46.5 3q49 0 77 -17t28 -46q0 -22 -11 -35t-26 -22.5t-26 -20t-11 -28.5q0 -20 -39 -20z" />
    <glyph glyph-name="uni0206" unicode="&#x206;" horiz-adv-x="597" 
d="M145 0q-68 0 -68 68v569q0 68 68 68h357q52 0 52 -50q0 -52 -52 -52h-302v-194h280q52 0 52 -51t-52 -51h-280v-205h302q52 0 52 -51t-52 -51h-357zM179 760q-14 2 -23.5 14.5t-4.5 32.5q17 65 64.5 98.5t112.5 33.5t113 -33.5t64 -98.5q5 -20 -4.5 -32.5t-23.5 -14.5
q-21 -2 -31 7.5t-13 21.5q-10 41 -40 58.5t-65 17.5q-34 0 -64 -17.5t-41 -58.5q-3 -12 -13 -21.5t-31 -7.5z" />
    <glyph glyph-name="Emacron" unicode="&#x112;" horiz-adv-x="597" 
d="M145 0q-68 0 -68 68v569q0 68 68 68h357q52 0 52 -50q0 -52 -52 -52h-302v-194h280q52 0 52 -51t-52 -51h-280v-205h302q52 0 52 -51t-52 -51h-357zM190 806q-39 0 -39 37t39 37h277q39 0 39 -37t-39 -37h-277z" />
    <glyph glyph-name="uni1E16" unicode="&#x1e16;" horiz-adv-x="597" 
d="M145 0q-68 0 -68 68v569q0 68 68 68h357q52 0 52 -50q0 -52 -52 -52h-302v-194h280q52 0 52 -51t-52 -51h-280v-205h302q52 0 52 -51t-52 -51h-357zM367 893q-14 -16 -32 -13.5t-27 17t1 33.5l49 89q12 21 31.5 24.5t36 -6t22 -26.5t-10.5 -36zM208 783q-42 0 -42 37
t42 37h240q42 0 42 -37t-42 -37h-240z" />
    <glyph glyph-name="uni1E14" unicode="&#x1e14;" horiz-adv-x="597" 
d="M145 0q-68 0 -68 68v569q0 68 68 68h357q52 0 52 -50q0 -52 -52 -52h-302v-194h280q52 0 52 -51t-52 -51h-280v-205h302q52 0 52 -51t-52 -51h-357zM289 893l-70 82q-16 19 -10.5 36t22 26.5t36 6t31.5 -24.5l49 -89q11 -19 1.5 -33.5t-27 -17t-32.5 13.5zM208 783
q-42 0 -42 37t42 37h240q42 0 42 -37t-42 -37h-240z" />
    <glyph glyph-name="Eogonek" unicode="&#x118;" horiz-adv-x="597" 
d="M145 0q-68 0 -68 68v569q0 68 68 68h357q52 0 52 -50q0 -52 -52 -52h-302v-194h280q52 0 52 -51t-52 -51h-280v-205h302q52 0 52 -51t-52 -51h-357zM477 -195q-55 0 -86.5 28t-31.5 76q0 42 28 78t74 55l37 -42q-25 -10 -42.5 -30.5t-17.5 -46.5q0 -25 16 -38t40 -13
q15 0 30 4q24 7 34 -6t6 -30.5t-24 -25.5q-16 -6 -32.5 -7.5t-30.5 -1.5z" />
    <glyph glyph-name="uni1EBC" unicode="&#x1ebc;" horiz-adv-x="597" 
d="M145 0q-68 0 -68 68v569q0 68 68 68h357q52 0 52 -50q0 -52 -52 -52h-302v-194h280q52 0 52 -51t-52 -51h-280v-205h302q52 0 52 -51t-52 -51h-357zM139 769q-16 1 -25 11t-5 27q12 56 46.5 86.5t83.5 30.5q28 0 52 -10t46 -23t42.5 -23t40.5 -10q26 0 41.5 13.5
t20.5 33.5q8 28 35 26q16 -1 25 -11t5 -27q-12 -56 -45.5 -86.5t-83.5 -30.5q-28 0 -52.5 10t-46.5 23t-42.5 23t-40.5 10q-25 0 -41 -13.5t-21 -33.5q-8 -28 -35 -26z" />
    <glyph glyph-name="F" unicode="F" horiz-adv-x="562" 
d="M143 -8q-66 0 -66 68v577q0 68 68 68h349q52 0 52 -50q0 -52 -52 -52h-289v-199h268q52 0 52 -50q0 -52 -52 -52h-268v-242q0 -68 -62 -68z" />
    <glyph glyph-name="G" unicode="G" horiz-adv-x="736" 
d="M416 -10q-117 0 -197.5 44t-122.5 125t-42 192q0 112 43 193.5t124 126t194 44.5q56 0 112.5 -13.5t106.5 -45.5q22 -13 25.5 -34.5t-6.5 -40.5t-30 -26.5t-44 6.5q-38 22 -77 32t-87 10q-112 0 -169.5 -65t-57.5 -187q0 -123 59 -187t175 -64q33 0 67.5 5.5t68.5 16.5
v164h-110q-52 0 -52 48q0 47 52 47h165q52 0 52 -52v-243q0 -46 -36 -59q-44 -16 -101 -26.5t-112 -10.5z" />
    <glyph glyph-name="Gbreve" unicode="&#x11e;" horiz-adv-x="736" 
d="M416 -10q-117 0 -197.5 44t-122.5 125t-42 192q0 112 43 193.5t124 126t194 44.5q56 0 112.5 -13.5t106.5 -45.5q22 -13 25.5 -34.5t-6.5 -40.5t-30 -26.5t-44 6.5q-38 22 -77 32t-87 10q-112 0 -169.5 -65t-57.5 -187q0 -123 59 -187t175 -64q33 0 67.5 5.5t68.5 16.5
v164h-110q-52 0 -52 48q0 47 52 47h165q52 0 52 -52v-243q0 -46 -36 -59q-44 -16 -101 -26.5t-112 -10.5zM401 760q-65 0 -112.5 34.5t-64.5 98.5q-5 20 4.5 33t23.5 14q21 2 31 -7.5t13 -21.5q10 -41 40.5 -58.5t64.5 -17.5q35 0 65 17.5t40 58.5q3 12 13 21.5t31 7.5
q14 -1 23.5 -14t4.5 -33q-16 -64 -64 -98.5t-113 -34.5z" />
    <glyph glyph-name="Gcaron" unicode="&#x1e6;" horiz-adv-x="736" 
d="M416 -10q-117 0 -197.5 44t-122.5 125t-42 192q0 112 43 193.5t124 126t194 44.5q56 0 112.5 -13.5t106.5 -45.5q22 -13 25.5 -34.5t-6.5 -40.5t-30 -26.5t-44 6.5q-38 22 -77 32t-87 10q-112 0 -169.5 -65t-57.5 -187q0 -123 59 -187t175 -64q33 0 67.5 5.5t68.5 16.5
v164h-110q-52 0 -52 48q0 47 52 47h165q52 0 52 -52v-243q0 -46 -36 -59q-44 -16 -101 -26.5t-112 -10.5zM401 754q-46 0 -73 39l-73 102q-10 14 -6.5 27t15.5 20.5t26.5 6t26.5 -15.5l84 -98l85 98q16 19 35.5 16t29.5 -18.5t-4 -35.5l-72 -102q-27 -39 -74 -39z" />
    <glyph glyph-name="Gcircumflex" unicode="&#x11c;" horiz-adv-x="736" 
d="M416 -10q-117 0 -197.5 44t-122.5 125t-42 192q0 112 43 193.5t124 126t194 44.5q56 0 112.5 -13.5t106.5 -45.5q22 -13 25.5 -34.5t-6.5 -40.5t-30 -26.5t-44 6.5q-38 22 -77 32t-87 10q-112 0 -169.5 -65t-57.5 -187q0 -123 59 -187t175 -64q33 0 67.5 5.5t68.5 16.5
v164h-110q-52 0 -52 48q0 47 52 47h165q52 0 52 -52v-243q0 -46 -36 -59q-44 -16 -101 -26.5t-112 -10.5zM317 771q-16 -17 -36 -14t-29.5 18.5t3.5 34.5l73 101q27 40 73 40q45 0 74 -40l72 -101q14 -19 4.5 -34.5t-29 -18.5t-36.5 14l-85 98z" />
    <glyph glyph-name="uni0122" unicode="&#x122;" horiz-adv-x="736" 
d="M416 -10q-117 0 -197.5 44t-122.5 125t-42 192q0 112 43 193.5t124 126t194 44.5q56 0 112.5 -13.5t106.5 -45.5q22 -13 25.5 -34.5t-6.5 -40.5t-30 -26.5t-44 6.5q-38 22 -77 32t-87 10q-112 0 -169.5 -65t-57.5 -187q0 -123 59 -187t175 -64q33 0 67.5 5.5t68.5 16.5
v164h-110q-52 0 -52 48q0 47 52 47h165q52 0 52 -52v-243q0 -46 -36 -59q-44 -16 -101 -26.5t-112 -10.5zM434 -260q-13 -16 -29.5 -14t-24 15.5t6.5 33.5q12 18 17 41q-64 3 -64 59q0 58 67 58q68 0 68 -69q0 -31 -10 -64.5t-31 -59.5z" />
    <glyph glyph-name="Gdotaccent" unicode="&#x120;" horiz-adv-x="736" 
d="M416 -10q-117 0 -197.5 44t-122.5 125t-42 192q0 112 43 193.5t124 126t194 44.5q56 0 112.5 -13.5t106.5 -45.5q22 -13 25.5 -34.5t-6.5 -40.5t-30 -26.5t-44 6.5q-38 22 -77 32t-87 10q-112 0 -169.5 -65t-57.5 -187q0 -123 59 -187t175 -64q33 0 67.5 5.5t68.5 16.5
v164h-110q-52 0 -52 48q0 47 52 47h165q52 0 52 -52v-243q0 -46 -36 -59q-44 -16 -101 -26.5t-112 -10.5zM401 789q-65 0 -65 63q0 62 65 62t65 -62q0 -63 -65 -63z" />
    <glyph glyph-name="uni1E20" unicode="&#x1e20;" horiz-adv-x="736" 
d="M416 -10q-117 0 -197.5 44t-122.5 125t-42 192q0 112 43 193.5t124 126t194 44.5q56 0 112.5 -13.5t106.5 -45.5q22 -13 25.5 -34.5t-6.5 -40.5t-30 -26.5t-44 6.5q-38 22 -77 32t-87 10q-112 0 -169.5 -65t-57.5 -187q0 -123 59 -187t175 -64q33 0 67.5 5.5t68.5 16.5
v164h-110q-52 0 -52 48q0 47 52 47h165q52 0 52 -52v-243q0 -46 -36 -59q-44 -16 -101 -26.5t-112 -10.5zM263 806q-39 0 -39 37t39 37h277q39 0 39 -37t-39 -37h-277z" />
    <glyph glyph-name="H" unicode="H" horiz-adv-x="773" 
d="M141 -8q-64 0 -64 66v589q0 66 64 66t64 -66v-236h363v236q0 66 64 66t64 -66v-589q0 -66 -64 -66t-64 66v246h-363v-246q0 -66 -64 -66z" />
    <glyph glyph-name="Hbar" unicode="&#x126;" horiz-adv-x="817" 
d="M164 -8q-31 0 -48 17.5t-17 48.5v453h-44q-49 0 -49 47t49 47h44v42q0 32 17 49t48 17q64 0 64 -66v-42h362v42q0 32 17 49t48 17q64 0 64 -66v-42h44q49 0 49 -47t-49 -47h-44v-453q0 -66 -64 -66q-65 0 -65 66v236h-362v-236q0 -66 -64 -66zM228 401h362v110h-362v-110
z" />
    <glyph glyph-name="uni1E2A" unicode="&#x1e2a;" horiz-adv-x="773" 
d="M141 -8q-64 0 -64 66v589q0 66 64 66t64 -66v-236h363v236q0 66 64 66t64 -66v-589q0 -66 -64 -66t-64 66v246h-363v-246q0 -66 -64 -66zM387 -215q-62 0 -104.5 30.5t-56.5 86.5q-5 21 3.5 33.5t24.5 13.5q16 2 27 -4.5t16 -24.5q8 -28 32 -44.5t58 -16.5
q35 0 58.5 16.5t31.5 44.5q5 18 16 24.5t27 4.5q17 -1 25 -13.5t3 -33.5q-14 -56 -56.5 -86.5t-104.5 -30.5z" />
    <glyph glyph-name="Hcircumflex" unicode="&#x124;" horiz-adv-x="773" 
d="M141 -8q-64 0 -64 66v589q0 66 64 66t64 -66v-236h363v236q0 66 64 66t64 -66v-589q0 -66 -64 -66t-64 66v246h-363v-246q0 -66 -64 -66zM302 771q-16 -17 -36 -14t-29.5 18.5t3.5 34.5l73 101q27 40 73 40q45 0 74 -40l72 -101q14 -19 4.5 -34.5t-29 -18.5t-36.5 14
l-85 98z" />
    <glyph glyph-name="uni1E24" unicode="&#x1e24;" horiz-adv-x="773" 
d="M141 -8q-64 0 -64 66v589q0 66 64 66t64 -66v-236h363v236q0 66 64 66t64 -66v-589q0 -66 -64 -66t-64 66v246h-363v-246q0 -66 -64 -66zM387 -209q-65 0 -65 63q0 62 65 62q66 0 66 -62q0 -63 -66 -63z" />
    <glyph glyph-name="I" unicode="I" horiz-adv-x="282" 
d="M141 -8q-64 0 -64 66v589q0 66 64 66t64 -66v-589q0 -66 -64 -66z" />
    <glyph glyph-name="IJ" unicode="&#x132;" horiz-adv-x="636" 
d="M141 -8q-64 0 -64 66v589q0 66 64 66t64 -66v-589q0 -66 -64 -66zM328 -7q-28 -1 -44 15t-16 41q0 19 11.5 33.5t33.5 15.5l30 2q89 6 89 98v450q0 65 64 65t64 -65v-449q0 -94 -50 -146t-148 -58z" />
    <glyph glyph-name="Iacute" unicode="&#xcd;" horiz-adv-x="282" 
d="M141 -8q-64 0 -64 66v589q0 66 64 66t64 -66v-589q0 -66 -64 -66zM192 771q-12 -13 -26.5 -13.5t-26 8t-15 21.5t5.5 27l78 115q14 21 34 22t36.5 -10.5t21 -29t-11.5 -35.5z" />
    <glyph glyph-name="Ibreve" unicode="&#x12c;" horiz-adv-x="282" 
d="M141 -8q-64 0 -64 66v589q0 66 64 66t64 -66v-589q0 -66 -64 -66zM141 760q-65 0 -112.5 34.5t-64.5 98.5q-5 20 4.5 33t23.5 14q21 2 31 -7.5t13 -21.5q10 -41 40.5 -58.5t64.5 -17.5q35 0 65 17.5t40 58.5q3 12 13 21.5t31 7.5q14 -1 23.5 -14t4.5 -33
q-16 -64 -64 -98.5t-113 -34.5z" />
    <glyph glyph-name="Icircumflex" unicode="&#xce;" horiz-adv-x="282" 
d="M141 -8q-64 0 -64 66v589q0 66 64 66t64 -66v-589q0 -66 -64 -66zM57 771q-16 -17 -36 -14t-29.5 18.5t3.5 34.5l73 101q27 40 73 40q45 0 74 -40l72 -101q14 -19 4.5 -34.5t-29 -18.5t-36.5 14l-85 98z" />
    <glyph glyph-name="uni0208" unicode="&#x208;" horiz-adv-x="282" 
d="M141 -8q-64 0 -64 66v589q0 66 64 66t64 -66v-589q0 -66 -64 -66zM29 770l-87 112q-15 20 -10 36.5t20.5 26t34 6t29.5 -24.5l65 -121q10 -18 1 -32t-24.5 -16.5t-28.5 13.5zM173 773l-79 109q-15 20 -9 37t22.5 25.5t35 5t28.5 -24.5l61 -122q9 -18 -1 -31.5t-27.5 -15
t-30.5 16.5z" />
    <glyph glyph-name="Idieresis" unicode="&#xcf;" horiz-adv-x="282" 
d="M141 -8q-64 0 -64 66v589q0 66 64 66t64 -66v-589q0 -66 -64 -66zM236 786q-62 0 -62 62q0 61 62 61q61 0 61 -61q0 -62 -61 -62zM47 786q-29 0 -45.5 16t-16.5 46q0 29 16.5 45t45.5 16q62 0 62 -61q0 -62 -62 -62z" />
    <glyph glyph-name="uni1E2E" unicode="&#x1e2e;" horiz-adv-x="282" 
d="M141 -8q-64 0 -64 66v589q0 66 64 66t64 -66v-589q0 -66 -64 -66zM179 893q-14 -17 -31.5 -14t-26.5 17.5t1 33.5l49 89q12 21 31.5 24t36.5 -6.5t22.5 -26.5t-11.5 -36zM47 766q-29 0 -45.5 12.5t-16.5 35.5t16.5 35.5t45.5 12.5q62 0 62 -48t-62 -48zM236 766
q-62 0 -62 48t62 48q61 0 61 -48t-61 -48z" />
    <glyph glyph-name="Idotaccent" unicode="&#x130;" horiz-adv-x="282" 
d="M141 -8q-64 0 -64 66v589q0 66 64 66t64 -66v-589q0 -66 -64 -66zM141 789q-65 0 -65 63q0 62 65 62t65 -62q0 -63 -65 -63z" />
    <glyph glyph-name="uni1ECA" unicode="&#x1eca;" horiz-adv-x="282" 
d="M141 -8q-64 0 -64 66v589q0 66 64 66t64 -66v-589q0 -66 -64 -66zM141 -209q-65 0 -65 63q0 62 65 62q66 0 66 -62q0 -63 -66 -63z" />
    <glyph glyph-name="Igrave" unicode="&#xcc;" horiz-adv-x="282" 
d="M141 -8q-64 0 -64 66v589q0 66 64 66t64 -66v-589q0 -66 -64 -66zM91 771l-96 105q-16 18 -11.5 35.5t21 29t36.5 10.5t34 -22l78 -115q9 -14 5.5 -27t-15 -21.5t-26 -8t-26.5 13.5z" />
    <glyph glyph-name="uni1EC8" unicode="&#x1ec8;" horiz-adv-x="282" 
d="M141 -8q-64 0 -64 66v589q0 66 64 66t64 -66v-589q0 -66 -64 -66zM141 757q-38 0 -38 26q0 24 14 36.5t28 22.5t14 23q0 20 -40 20q-7 0 -16.5 -1t-18.5 -3q-34 -8 -42 15q-4 12 0.5 22.5t20.5 15.5q17 6 39.5 9t46.5 3q49 0 77 -17t28 -46q0 -22 -11 -35t-26 -22.5
t-26 -20t-11 -28.5q0 -20 -39 -20z" />
    <glyph glyph-name="uni020A" unicode="&#x20a;" horiz-adv-x="282" 
d="M141 -8q-64 0 -64 66v589q0 66 64 66t64 -66v-589q0 -66 -64 -66zM-8 760q-14 2 -23.5 14.5t-4.5 32.5q17 65 64.5 98.5t112.5 33.5t113 -33.5t64 -98.5q5 -20 -4.5 -32.5t-23.5 -14.5q-21 -2 -31 7.5t-13 21.5q-10 41 -40 58.5t-65 17.5q-34 0 -64 -17.5t-41 -58.5
q-3 -12 -13 -21.5t-31 -7.5z" />
    <glyph glyph-name="Imacron" unicode="&#x12a;" horiz-adv-x="282" 
d="M141 -8q-64 0 -64 66v589q0 66 64 66t64 -66v-589q0 -66 -64 -66zM3 806q-39 0 -39 37t39 37h277q39 0 39 -37t-39 -37h-277z" />
    <glyph glyph-name="Iogonek" unicode="&#x12e;" horiz-adv-x="282" 
d="M157 -195q-55 0 -86.5 28t-31.5 76q0 30 14 56.5t38 46.5q-14 17 -14 46v589q0 66 64 66t64 -66v-589q0 -22 -8.5 -37.5t-21.5 -21.5q-23 -10 -40 -30.5t-17 -45.5t16 -38t40 -13q15 0 30 4q24 7 34 -6t6 -30.5t-24 -25.5q-16 -6 -32.5 -7.5t-30.5 -1.5z" />
    <glyph glyph-name="Itilde" unicode="&#x128;" horiz-adv-x="282" 
d="M141 -8q-64 0 -64 66v589q0 66 64 66t64 -66v-589q0 -66 -64 -66zM-48 769q-16 1 -25 11t-5 27q12 56 46.5 86.5t83.5 30.5q28 0 52 -10t46 -23t42.5 -23t40.5 -10q26 0 41.5 13.5t20.5 33.5q8 28 35 26q16 -1 25 -11t5 -27q-12 -56 -45.5 -86.5t-83.5 -30.5
q-28 0 -52.5 10t-46.5 23t-42.5 23t-40.5 10q-25 0 -41 -13.5t-21 -33.5q-8 -28 -35 -26z" />
    <glyph glyph-name="J" unicode="J" horiz-adv-x="354" 
d="M46 -7q-28 -1 -44 15t-16 41q0 19 11.5 33.5t33.5 15.5l30 2q89 6 89 98v450q0 65 64 65t64 -65v-449q0 -94 -50 -146t-148 -58z" />
    <glyph glyph-name="Jcircumflex" unicode="&#x134;" horiz-adv-x="354" 
d="M46 -7q-28 -1 -44 15t-16 41q0 19 11.5 33.5t33.5 15.5l30 2q89 6 89 98v450q0 65 64 65t64 -65v-449q0 -94 -50 -146t-148 -58zM129 771q-16 -17 -36 -14t-29.5 18.5t3.5 34.5l73 101q27 40 73 40q45 0 74 -40l72 -101q14 -19 4.5 -34.5t-29 -18.5t-36.5 14l-85 98z" />
    <glyph glyph-name="K" unicode="K" horiz-adv-x="665" 
d="M141 -8q-64 0 -64 66v590q0 65 64 65t64 -65v-255h2l287 288q16 16 32 24t36 8q29 0 41.5 -15t10 -35t-19.5 -37l-263 -260l277 -281q21 -20 22 -42t-13.5 -36.5t-42.5 -14.5q-24 0 -38.5 10t-33.5 29l-295 295h-2v-268q0 -66 -64 -66z" />
    <glyph glyph-name="uni0136" unicode="&#x136;" horiz-adv-x="665" 
d="M141 -8q-64 0 -64 66v590q0 65 64 65t64 -65v-255h2l287 288q16 16 32 24t36 8q29 0 41.5 -15t10 -35t-19.5 -37l-263 -260l277 -281q21 -20 22 -42t-13.5 -36.5t-42.5 -14.5q-24 0 -38.5 10t-33.5 29l-295 295h-2v-268q0 -66 -64 -66zM358 -260q-13 -16 -29.5 -14
t-24 15.5t6.5 33.5q12 18 17 41q-64 3 -64 59q0 58 67 58q68 0 68 -69q0 -31 -10 -64.5t-31 -59.5z" />
    <glyph glyph-name="L" unicode="L" horiz-adv-x="562" 
d="M142 0q-65 0 -65 66v577q0 65 64 65t64 -65v-534h290q56 0 56 -54q0 -55 -56 -55h-353z" />
    <glyph glyph-name="uni01C7" unicode="&#x1c7;" horiz-adv-x="956" 
d="M142 0q-65 0 -65 66v577q0 65 64 65t64 -65v-534h290q56 0 56 -54q0 -55 -56 -55h-353zM648 -7q-28 -1 -44 15t-16 41q0 19 11.5 33.5t33.5 15.5l30 2q89 6 89 98v450q0 65 64 65t64 -65v-449q0 -94 -50 -146t-148 -58z" />
    <glyph glyph-name="Lacute" unicode="&#x139;" horiz-adv-x="562" 
d="M142 0q-65 0 -65 66v577q0 65 64 65t64 -65v-534h290q56 0 56 -54q0 -55 -56 -55h-353zM192 771q-12 -13 -26.5 -13.5t-26 8t-15 21.5t5.5 27l78 115q14 21 34 22t36.5 -10.5t21 -29t-11.5 -35.5z" />
    <glyph glyph-name="Lcaron" unicode="&#x13d;" horiz-adv-x="562" 
d="M142 0q-65 0 -65 66v577q0 65 64 65t64 -65v-534h290q56 0 56 -54q0 -55 -56 -55h-353zM348 462q-37 0 -37 39v163q0 49 49 49t44 -51l-16 -163q-3 -37 -40 -37z" />
    <glyph glyph-name="uni013B" unicode="&#x13b;" horiz-adv-x="562" 
d="M142 0q-65 0 -65 66v577q0 65 64 65t64 -65v-534h290q56 0 56 -54q0 -55 -56 -55h-353zM336 -260q-13 -16 -29.5 -14t-24 15.5t6.5 33.5q12 18 17 41q-64 3 -64 59q0 58 67 58q68 0 68 -69q0 -31 -10 -64.5t-31 -59.5z" />
    <glyph glyph-name="Ldot" unicode="&#x13f;" horiz-adv-x="562" 
d="M142 0q-65 0 -65 66v577q0 65 64 65t64 -65v-534h290q56 0 56 -54q0 -55 -56 -55h-353zM425 320q-34 0 -54.5 21t-20.5 53q0 33 20.5 53.5t54.5 20.5q35 0 54.5 -20.5t19.5 -53.5q0 -32 -19.5 -53t-54.5 -21z" />
    <glyph glyph-name="uni1E36" unicode="&#x1e36;" horiz-adv-x="562" 
d="M142 0q-65 0 -65 66v577q0 65 64 65t64 -65v-534h290q56 0 56 -54q0 -55 -56 -55h-353zM310 -209q-65 0 -65 63q0 62 65 62q66 0 66 -62q0 -63 -66 -63z" />
    <glyph glyph-name="uni01C8" unicode="&#x1c8;" horiz-adv-x="821" 
d="M142 0q-65 0 -65 66v577q0 65 64 65t64 -65v-534h290q56 0 56 -54q0 -55 -56 -55h-353zM693 589q-35 0 -54.5 17.5t-19.5 48.5q0 32 19.5 49t54.5 17q74 0 74 -66t-74 -66zM567 -189q-28 -2 -42.5 10.5t-16.5 30.5t7.5 33t29.5 17q45 4 65.5 25.5t20.5 65.5v441
q0 63 63 63q62 0 62 -63v-430q0 -97 -46 -141t-143 -52z" />
    <glyph glyph-name="uni1E3A" unicode="&#x1e3a;" horiz-adv-x="562" 
d="M142 0q-65 0 -65 66v577q0 65 64 65t64 -65v-534h290q56 0 56 -54q0 -55 -56 -55h-353zM187 -165q-39 0 -39 37t39 37h247q39 0 39 -37t-39 -37h-247z" />
    <glyph glyph-name="Lslash" unicode="&#x141;" horiz-adv-x="562" 
d="M142 0q-65 0 -65 66v577q0 65 64 65t64 -65v-534h290q56 0 56 -54q0 -55 -56 -55h-353zM44 248q-23 -13 -42 -7t-28.5 22.5t-5 36.5t27.5 33l335 193q23 14 42 7.5t28.5 -23.5t5 -36.5t-27.5 -33.5z" />
    <glyph glyph-name="M" unicode="M" horiz-adv-x="868" 
d="M137 -8q-58 0 -58 60v601q0 60 60 60q25 0 39.5 -9.5t26.5 -32.5l231 -427l231 427q12 23 26 32.5t39 9.5q58 0 58 -60v-601q0 -60 -58 -60t-58 60v423l-188 -343q-10 -17 -21 -25t-30 -8t-31 8.5t-21 24.5l-188 341v-421q0 -60 -58 -60z" />
    <glyph glyph-name="uni1E42" unicode="&#x1e42;" horiz-adv-x="868" 
d="M137 -8q-58 0 -58 60v601q0 60 60 60q25 0 39.5 -9.5t26.5 -32.5l231 -427l231 427q12 23 26 32.5t39 9.5q58 0 58 -60v-601q0 -60 -58 -60t-58 60v423l-188 -343q-10 -17 -21 -25t-30 -8t-31 8.5t-21 24.5l-188 341v-421q0 -60 -58 -60zM435 -209q-65 0 -65 63
q0 62 65 62q66 0 66 -62q0 -63 -66 -63z" />
    <glyph glyph-name="N" unicode="N" horiz-adv-x="748" 
d="M137 -8q-60 0 -60 62v595q0 31 15.5 47.5t40.5 16.5q23 0 34.5 -8.5t27.5 -28.5l357 -463v439q0 61 60 61q59 0 59 -61v-600q0 -28 -14 -44t-38 -16q-23 0 -36.5 9t-29.5 29l-357 464v-440q0 -62 -59 -62z" />
    <glyph glyph-name="uni01CA" unicode="&#x1ca;" horiz-adv-x="1102" 
d="M137 -8q-60 0 -60 62v595q0 31 15.5 47.5t40.5 16.5q23 0 34.5 -8.5t27.5 -28.5l357 -463v439q0 61 60 61q59 0 59 -61v-600q0 -28 -14 -44t-38 -16q-23 0 -36.5 9t-29.5 29l-357 464v-440q0 -62 -59 -62zM794 -7q-28 -1 -44 15t-16 41q0 19 11.5 33.5t33.5 15.5l30 2
q89 6 89 98v450q0 65 64 65t64 -65v-449q0 -94 -50 -146t-148 -58z" />
    <glyph glyph-name="Nacute" unicode="&#x143;" horiz-adv-x="748" 
d="M137 -8q-60 0 -60 62v595q0 31 15.5 47.5t40.5 16.5q23 0 34.5 -8.5t27.5 -28.5l357 -463v439q0 61 60 61q59 0 59 -61v-600q0 -28 -14 -44t-38 -16q-23 0 -36.5 9t-29.5 29l-357 464v-440q0 -62 -59 -62zM425 771q-12 -13 -26.5 -13.5t-26 8t-15 21.5t5.5 27l78 115
q14 21 34 22t36.5 -10.5t21 -29t-11.5 -35.5z" />
    <glyph glyph-name="Ncaron" unicode="&#x147;" horiz-adv-x="748" 
d="M137 -8q-60 0 -60 62v595q0 31 15.5 47.5t40.5 16.5q23 0 34.5 -8.5t27.5 -28.5l357 -463v439q0 61 60 61q59 0 59 -61v-600q0 -28 -14 -44t-38 -16q-23 0 -36.5 9t-29.5 29l-357 464v-440q0 -62 -59 -62zM374 754q-46 0 -73 39l-73 102q-10 14 -6.5 27t15.5 20.5t26.5 6
t26.5 -15.5l84 -98l85 98q16 19 35.5 16t29.5 -18.5t-4 -35.5l-72 -102q-27 -39 -74 -39z" />
    <glyph glyph-name="uni0145" unicode="&#x145;" horiz-adv-x="748" 
d="M137 -8q-60 0 -60 62v595q0 31 15.5 47.5t40.5 16.5q23 0 34.5 -8.5t27.5 -28.5l357 -463v439q0 61 60 61q59 0 59 -61v-600q0 -28 -14 -44t-38 -16q-23 0 -36.5 9t-29.5 29l-357 464v-440q0 -62 -59 -62zM400 -260q-13 -16 -29.5 -14t-24 15.5t6.5 33.5q12 18 17 41
q-64 3 -64 59q0 58 67 58q68 0 68 -69q0 -31 -10 -64.5t-31 -59.5z" />
    <glyph glyph-name="uni1E44" unicode="&#x1e44;" horiz-adv-x="748" 
d="M137 -8q-60 0 -60 62v595q0 31 15.5 47.5t40.5 16.5q23 0 34.5 -8.5t27.5 -28.5l357 -463v439q0 61 60 61q59 0 59 -61v-600q0 -28 -14 -44t-38 -16q-23 0 -36.5 9t-29.5 29l-357 464v-440q0 -62 -59 -62zM374 789q-65 0 -65 63q0 62 65 62t65 -62q0 -63 -65 -63z" />
    <glyph glyph-name="uni1E46" unicode="&#x1e46;" horiz-adv-x="748" 
d="M137 -8q-60 0 -60 62v595q0 31 15.5 47.5t40.5 16.5q23 0 34.5 -8.5t27.5 -28.5l357 -463v439q0 61 60 61q59 0 59 -61v-600q0 -28 -14 -44t-38 -16q-23 0 -36.5 9t-29.5 29l-357 464v-440q0 -62 -59 -62zM374 -209q-65 0 -65 63q0 62 65 62q66 0 66 -62q0 -63 -66 -63z
" />
    <glyph glyph-name="Eng" unicode="&#x14a;" horiz-adv-x="748" 
d="M480 -189q-28 -2 -42 11t-16 31t8 32.5t30 16.5q46 5 69 25t23 66v38l-356 463v-440q0 -62 -59 -62q-60 0 -60 62v595q0 31 15.5 47.5t40.5 16.5q23 0 34.5 -8.5t27.5 -28.5l357 -463v439q0 61 60 61q59 0 59 -61v-643q0 -103 -47.5 -147t-143.5 -51z" />
    <glyph glyph-name="uni01CB" unicode="&#x1cb;" horiz-adv-x="1007" 
d="M137 -8q-60 0 -60 62v595q0 31 15.5 47.5t40.5 16.5q23 0 34.5 -8.5t27.5 -28.5l357 -463v439q0 61 60 61q59 0 59 -61v-600q0 -28 -14 -44t-38 -16q-23 0 -36.5 9t-29.5 29l-357 464v-440q0 -62 -59 -62zM879 589q-35 0 -54.5 17.5t-19.5 48.5q0 32 19.5 49t54.5 17
q74 0 74 -66t-74 -66zM753 -189q-28 -2 -42.5 10.5t-16.5 30.5t7.5 33t29.5 17q45 4 65.5 25.5t20.5 65.5v441q0 63 63 63q62 0 62 -63v-430q0 -97 -46 -141t-143 -52z" />
    <glyph glyph-name="uni1E48" unicode="&#x1e48;" horiz-adv-x="748" 
d="M137 -8q-60 0 -60 62v595q0 31 15.5 47.5t40.5 16.5q23 0 34.5 -8.5t27.5 -28.5l357 -463v439q0 61 60 61q59 0 59 -61v-600q0 -28 -14 -44t-38 -16q-23 0 -36.5 9t-29.5 29l-357 464v-440q0 -62 -59 -62zM251 -165q-39 0 -39 37t39 37h247q39 0 39 -37t-39 -37h-247z
" />
    <glyph glyph-name="Ntilde" unicode="&#xd1;" horiz-adv-x="748" 
d="M137 -8q-60 0 -60 62v595q0 31 15.5 47.5t40.5 16.5q23 0 34.5 -8.5t27.5 -28.5l357 -463v439q0 61 60 61q59 0 59 -61v-600q0 -28 -14 -44t-38 -16q-23 0 -36.5 9t-29.5 29l-357 464v-440q0 -62 -59 -62zM185 769q-16 1 -25 11t-5 27q12 56 46.5 86.5t83.5 30.5
q28 0 52 -10t46 -23t42.5 -23t40.5 -10q26 0 41.5 13.5t20.5 33.5q8 28 35 26q16 -1 25 -11t5 -27q-12 -56 -45.5 -86.5t-83.5 -30.5q-28 0 -52.5 10t-46.5 23t-42.5 23t-40.5 10q-25 0 -41 -13.5t-21 -33.5q-8 -28 -35 -26z" />
    <glyph glyph-name="O" unicode="O" horiz-adv-x="785" 
d="M393 -10q-102 0 -178.5 45t-118.5 126.5t-42 191.5q0 111 42 192t118 125.5t179 44.5t179 -44.5t118 -125.5t42 -191q0 -111 -42 -192.5t-118 -126.5t-179 -45zM393 100q97 0 151 67t54 186q0 120 -53.5 186t-151.5 66q-97 0 -151 -66t-54 -186q0 -119 54 -186t151 -67z
" />
    <glyph glyph-name="Oacute" unicode="&#xd3;" horiz-adv-x="785" 
d="M393 -10q-102 0 -178.5 45t-118.5 126.5t-42 191.5q0 111 42 192t118 125.5t179 44.5t179 -44.5t118 -125.5t42 -191q0 -111 -42 -192.5t-118 -126.5t-179 -45zM393 100q97 0 151 67t54 186q0 120 -53.5 186t-151.5 66q-97 0 -151 -66t-54 -186q0 -119 54 -186t151 -67z
M443 771q-12 -13 -26.5 -13.5t-26 8t-15 21.5t5.5 27l78 115q14 21 34 22t36.5 -10.5t21 -29t-11.5 -35.5z" />
    <glyph glyph-name="Obreve" unicode="&#x14e;" horiz-adv-x="785" 
d="M393 -10q-102 0 -178.5 45t-118.5 126.5t-42 191.5q0 111 42 192t118 125.5t179 44.5t179 -44.5t118 -125.5t42 -191q0 -111 -42 -192.5t-118 -126.5t-179 -45zM393 100q97 0 151 67t54 186q0 120 -53.5 186t-151.5 66q-97 0 -151 -66t-54 -186q0 -119 54 -186t151 -67z
M392 760q-65 0 -112.5 34.5t-64.5 98.5q-5 20 4.5 33t23.5 14q21 2 31 -7.5t13 -21.5q10 -41 40.5 -58.5t64.5 -17.5q35 0 65 17.5t40 58.5q3 12 13 21.5t31 7.5q14 -1 23.5 -14t4.5 -33q-16 -64 -64 -98.5t-113 -34.5z" />
    <glyph glyph-name="Ocircumflex" unicode="&#xd4;" horiz-adv-x="785" 
d="M393 -10q-102 0 -178.5 45t-118.5 126.5t-42 191.5q0 111 42 192t118 125.5t179 44.5t179 -44.5t118 -125.5t42 -191q0 -111 -42 -192.5t-118 -126.5t-179 -45zM393 100q97 0 151 67t54 186q0 120 -53.5 186t-151.5 66q-97 0 -151 -66t-54 -186q0 -119 54 -186t151 -67z
M308 771q-16 -17 -36 -14t-29.5 18.5t3.5 34.5l73 101q27 40 73 40q45 0 74 -40l72 -101q14 -19 4.5 -34.5t-29 -18.5t-36.5 14l-85 98z" />
    <glyph glyph-name="uni1ED0" unicode="&#x1ed0;" horiz-adv-x="785" 
d="M393 -10q-102 0 -178.5 45t-118.5 126.5t-42 191.5q0 111 42 192t118 125.5t179 44.5t179 -44.5t118 -125.5t42 -191q0 -111 -42 -192.5t-118 -126.5t-179 -45zM393 100q97 0 151 67t54 186q0 120 -53.5 186t-151.5 66q-97 0 -151 -66t-54 -186q0 -119 54 -186t151 -67z
M567 865q-12 -15 -28 -13.5t-24.5 15.5t2.5 33l62 110q11 20 28 22.5t31.5 -6t19 -24.5t-9.5 -34zM311 769q-16 -18 -34 -15.5t-26.5 18t4.5 34.5l65 97q15 22 32.5 30.5t39.5 8.5q23 0 40.5 -8.5t31.5 -30.5l65 -97q13 -19 5 -34.5t-25.5 -18t-34.5 15.5l-82 91z" />
    <glyph glyph-name="uni1ED8" unicode="&#x1ed8;" horiz-adv-x="785" 
d="M393 -10q-102 0 -178.5 45t-118.5 126.5t-42 191.5q0 111 42 192t118 125.5t179 44.5t179 -44.5t118 -125.5t42 -191q0 -111 -42 -192.5t-118 -126.5t-179 -45zM393 100q97 0 151 67t54 186q0 120 -53.5 186t-151.5 66q-97 0 -151 -66t-54 -186q0 -119 54 -186t151 -67z
M392 -209q-65 0 -65 63q0 62 65 62q66 0 66 -62q0 -63 -66 -63zM308 771q-16 -17 -36 -14t-29.5 18.5t3.5 34.5l73 101q27 40 73 40q45 0 74 -40l72 -101q14 -19 4.5 -34.5t-29 -18.5t-36.5 14l-85 98z" />
    <glyph glyph-name="uni1ED2" unicode="&#x1ed2;" horiz-adv-x="785" 
d="M393 -10q-102 0 -178.5 45t-118.5 126.5t-42 191.5q0 111 42 192t118 125.5t179 44.5t179 -44.5t118 -125.5t42 -191q0 -111 -42 -192.5t-118 -126.5t-179 -45zM393 100q97 0 151 67t54 186q0 120 -53.5 186t-151.5 66q-97 0 -151 -66t-54 -186q0 -119 54 -186t151 -67z
M546 865l-81 103q-14 18 -9.5 34t19 24.5t31.5 6t28 -22.5l62 -110q11 -19 2.5 -33t-24.5 -15.5t-28 13.5zM311 769q-16 -18 -34 -15.5t-26.5 18t4.5 34.5l65 97q15 22 32.5 30.5t39.5 8.5q23 0 40.5 -8.5t31.5 -30.5l65 -97q13 -19 5 -34.5t-25.5 -18t-34.5 15.5l-82 91z
" />
    <glyph glyph-name="uni1ED4" unicode="&#x1ed4;" horiz-adv-x="785" 
d="M393 -10q-102 0 -178.5 45t-118.5 126.5t-42 191.5q0 111 42 192t118 125.5t179 44.5t179 -44.5t118 -125.5t42 -191q0 -111 -42 -192.5t-118 -126.5t-179 -45zM393 100q97 0 151 67t54 186q0 120 -53.5 186t-151.5 66q-97 0 -151 -66t-54 -186q0 -119 54 -186t151 -67z
M553 865q-13 -7 -26 -2.5t-16.5 15.5t8.5 21q16 13 25.5 24t9.5 24q0 24 -37 24q-7 0 -15.5 -1t-17.5 -3q-28 -7 -36 15q-8 25 21 34q17 5 35.5 7t38.5 2q44 0 68.5 -14t24.5 -45q0 -20 -13 -39.5t-32 -35t-38 -26.5zM311 769q-16 -18 -34 -15.5t-26.5 18t4.5 34.5l65 97
q15 22 32.5 30.5t39.5 8.5q23 0 40.5 -8.5t31.5 -30.5l65 -97q13 -19 5 -34.5t-25.5 -18t-34.5 15.5l-82 91z" />
    <glyph glyph-name="uni1ED6" unicode="&#x1ed6;" horiz-adv-x="785" 
d="M393 -10q-102 0 -178.5 45t-118.5 126.5t-42 191.5q0 111 42 192t118 125.5t179 44.5t179 -44.5t118 -125.5t42 -191q0 -111 -42 -192.5t-118 -126.5t-179 -45zM393 100q97 0 151 67t54 186q0 120 -53.5 186t-151.5 66q-97 0 -151 -66t-54 -186q0 -119 54 -186t151 -67z
M251 922q-14 1 -21.5 11t-3.5 26q10 37 36.5 56t63.5 19q27 0 49 -11t41.5 -22t38.5 -11q15 0 27 5.5t17 18.5q9 23 35 22q14 -1 22 -10.5t3 -26.5q-10 -37 -36.5 -56t-63.5 -19q-27 0 -49.5 11t-41.5 22t-38 11q-15 0 -27 -5.5t-17 -18.5q-9 -23 -35 -22zM302 763
q-16 -13 -31.5 -8.5t-21 18t6.5 27.5l59 70q17 20 36 27.5t41 7.5q23 0 42.5 -7.5t35.5 -27.5l58 -70q12 -14 6.5 -28t-20.5 -18.5t-32 9.5l-90 74z" />
    <glyph glyph-name="uni020C" unicode="&#x20c;" horiz-adv-x="785" 
d="M393 -10q-102 0 -178.5 45t-118.5 126.5t-42 191.5q0 111 42 192t118 125.5t179 44.5t179 -44.5t118 -125.5t42 -191q0 -111 -42 -192.5t-118 -126.5t-179 -45zM393 100q97 0 151 67t54 186q0 120 -53.5 186t-151.5 66q-97 0 -151 -66t-54 -186q0 -119 54 -186t151 -67z
M280 770l-87 112q-15 20 -10 36.5t20.5 26t34 6t29.5 -24.5l65 -121q10 -18 1 -32t-24.5 -16.5t-28.5 13.5zM424 773l-79 109q-15 20 -9 37t22.5 25.5t35 5t28.5 -24.5l61 -122q9 -18 -1 -31.5t-27.5 -15t-30.5 16.5z" />
    <glyph glyph-name="Odieresis" unicode="&#xd6;" horiz-adv-x="785" 
d="M393 -10q-102 0 -178.5 45t-118.5 126.5t-42 191.5q0 111 42 192t118 125.5t179 44.5t179 -44.5t118 -125.5t42 -191q0 -111 -42 -192.5t-118 -126.5t-179 -45zM393 100q97 0 151 67t54 186q0 120 -53.5 186t-151.5 66q-97 0 -151 -66t-54 -186q0 -119 54 -186t151 -67z
M487 786q-62 0 -62 62q0 61 62 61q61 0 61 -61q0 -62 -61 -62zM298 786q-29 0 -45.5 16t-16.5 46q0 29 16.5 45t45.5 16q62 0 62 -61q0 -62 -62 -62z" />
    <glyph glyph-name="uni022A" unicode="&#x22a;" horiz-adv-x="785" 
d="M393 -10q-102 0 -178.5 45t-118.5 126.5t-42 191.5q0 111 42 192t118 125.5t179 44.5t179 -44.5t118 -125.5t42 -191q0 -111 -42 -192.5t-118 -126.5t-179 -45zM393 100q97 0 151 67t54 186q0 120 -53.5 186t-151.5 66q-97 0 -151 -66t-54 -186q0 -119 54 -186t151 -67z
M272 924q-42 0 -42 37t42 37h240q42 0 42 -37t-42 -37h-240zM298 783q-29 0 -45.5 13t-16.5 36t16.5 35.5t45.5 12.5q62 0 62 -48q0 -49 -62 -49zM487 783q-62 0 -62 49q0 48 62 48q61 0 61 -48q0 -49 -61 -49z" />
    <glyph glyph-name="uni0230" unicode="&#x230;" horiz-adv-x="785" 
d="M393 -10q-102 0 -178.5 45t-118.5 126.5t-42 191.5q0 111 42 192t118 125.5t179 44.5t179 -44.5t118 -125.5t42 -191q0 -111 -42 -192.5t-118 -126.5t-179 -45zM393 100q97 0 151 67t54 186q0 120 -53.5 186t-151.5 66q-97 0 -151 -66t-54 -186q0 -119 54 -186t151 -67z
M272 924q-42 0 -42 37t42 37h240q42 0 42 -37t-42 -37h-240zM393 783q-29 0 -45.5 13t-16.5 36t16.5 35.5t45.5 12.5q62 0 62 -48q0 -49 -62 -49z" />
    <glyph glyph-name="uni1ECC" unicode="&#x1ecc;" horiz-adv-x="785" 
d="M393 -10q-102 0 -178.5 45t-118.5 126.5t-42 191.5q0 111 42 192t118 125.5t179 44.5t179 -44.5t118 -125.5t42 -191q0 -111 -42 -192.5t-118 -126.5t-179 -45zM393 100q97 0 151 67t54 186q0 120 -53.5 186t-151.5 66q-97 0 -151 -66t-54 -186q0 -119 54 -186t151 -67z
M392 -209q-65 0 -65 63q0 62 65 62q66 0 66 -62q0 -63 -66 -63z" />
    <glyph glyph-name="Ograve" unicode="&#xd2;" horiz-adv-x="785" 
d="M393 -10q-102 0 -178.5 45t-118.5 126.5t-42 191.5q0 111 42 192t118 125.5t179 44.5t179 -44.5t118 -125.5t42 -191q0 -111 -42 -192.5t-118 -126.5t-179 -45zM393 100q97 0 151 67t54 186q0 120 -53.5 186t-151.5 66q-97 0 -151 -66t-54 -186q0 -119 54 -186t151 -67z
M342 771l-96 105q-16 18 -11.5 35.5t21 29t36.5 10.5t34 -22l78 -115q9 -14 5.5 -27t-15 -21.5t-26 -8t-26.5 13.5z" />
    <glyph glyph-name="uni1ECE" unicode="&#x1ece;" horiz-adv-x="785" 
d="M393 -10q-102 0 -178.5 45t-118.5 126.5t-42 191.5q0 111 42 192t118 125.5t179 44.5t179 -44.5t118 -125.5t42 -191q0 -111 -42 -192.5t-118 -126.5t-179 -45zM393 100q97 0 151 67t54 186q0 120 -53.5 186t-151.5 66q-97 0 -151 -66t-54 -186q0 -119 54 -186t151 -67z
M392 757q-38 0 -38 26q0 24 14 36.5t28 22.5t14 23q0 20 -40 20q-7 0 -16.5 -1t-18.5 -3q-34 -8 -42 15q-4 12 0.5 22.5t20.5 15.5q17 6 39.5 9t46.5 3q49 0 77 -17t28 -46q0 -22 -11 -35t-26 -22.5t-26 -20t-11 -28.5q0 -20 -39 -20z" />
    <glyph glyph-name="Ohorn" unicode="&#x1a0;" horiz-adv-x="785" 
d="M393 -10q-102 0 -178.5 45t-118.5 126.5t-42 191.5q0 111 42 192t118 125.5t179 44.5t179 -44.5t118 -125.5t42 -191q0 -111 -42 -192.5t-118 -126.5t-179 -45zM393 100q97 0 151 67t54 186q0 120 -53.5 186t-151.5 66q-97 0 -151 -66t-54 -186q0 -119 54 -186t151 -67z
M494 641l-44 68q23 -1 40 -2.5t33 -1.5q53 0 74.5 23.5t21.5 65.5q0 21 14 33.5t41 12.5q26 0 40 -14t14 -36q0 -40 -18 -74t-50.5 -54.5t-74.5 -20.5h-91z" />
    <glyph glyph-name="uni1EDA" unicode="&#x1eda;" horiz-adv-x="785" 
d="M393 -10q-102 0 -178.5 45t-118.5 126.5t-42 191.5q0 111 42 192t118 125.5t179 44.5t179 -44.5t118 -125.5t42 -191q0 -111 -42 -192.5t-118 -126.5t-179 -45zM393 100q97 0 151 67t54 186q0 120 -53.5 186t-151.5 66q-97 0 -151 -66t-54 -186q0 -119 54 -186t151 -67z
M494 641l-44 68q23 -1 40 -2.5t33 -1.5q53 0 74.5 23.5t21.5 65.5q0 21 14 33.5t41 12.5q26 0 40 -14t14 -36q0 -40 -18 -74t-50.5 -54.5t-74.5 -20.5h-91zM440 771q-12 -13 -26.5 -13.5t-26 8t-15 21.5t5.5 27l78 115q14 21 34 22t36.5 -10.5t21 -29t-11.5 -35.5z" />
    <glyph glyph-name="uni1EE2" unicode="&#x1ee2;" horiz-adv-x="785" 
d="M393 -10q-102 0 -178.5 45t-118.5 126.5t-42 191.5q0 111 42 192t118 125.5t179 44.5t179 -44.5t118 -125.5t42 -191q0 -111 -42 -192.5t-118 -126.5t-179 -45zM393 100q97 0 151 67t54 186q0 120 -53.5 186t-151.5 66q-97 0 -151 -66t-54 -186q0 -119 54 -186t151 -67z
M494 641l-44 68q23 -1 40 -2.5t33 -1.5q53 0 74.5 23.5t21.5 65.5q0 21 14 33.5t41 12.5q26 0 40 -14t14 -36q0 -40 -18 -74t-50.5 -54.5t-74.5 -20.5h-91zM390 -209q-65 0 -65 63q0 62 65 62q66 0 66 -62q0 -63 -66 -63z" />
    <glyph glyph-name="uni1EDC" unicode="&#x1edc;" horiz-adv-x="785" 
d="M393 -10q-102 0 -178.5 45t-118.5 126.5t-42 191.5q0 111 42 192t118 125.5t179 44.5t179 -44.5t118 -125.5t42 -191q0 -111 -42 -192.5t-118 -126.5t-179 -45zM393 100q97 0 151 67t54 186q0 120 -53.5 186t-151.5 66q-97 0 -151 -66t-54 -186q0 -119 54 -186t151 -67z
M494 641l-44 68q23 -1 40 -2.5t33 -1.5q53 0 74.5 23.5t21.5 65.5q0 21 14 33.5t41 12.5q26 0 40 -14t14 -36q0 -40 -18 -74t-50.5 -54.5t-74.5 -20.5h-91zM339 771l-96 105q-16 18 -11.5 35.5t21 29t36.5 10.5t34 -22l78 -115q9 -14 5.5 -27t-15 -21.5t-26 -8t-26.5 13.5z
" />
    <glyph glyph-name="uni1EDE" unicode="&#x1ede;" horiz-adv-x="785" 
d="M393 -10q-102 0 -178.5 45t-118.5 126.5t-42 191.5q0 111 42 192t118 125.5t179 44.5t179 -44.5t118 -125.5t42 -191q0 -111 -42 -192.5t-118 -126.5t-179 -45zM393 100q97 0 151 67t54 186q0 120 -53.5 186t-151.5 66q-97 0 -151 -66t-54 -186q0 -119 54 -186t151 -67z
M494 641l-44 68q23 -1 40 -2.5t33 -1.5q53 0 74.5 23.5t21.5 65.5q0 21 14 33.5t41 12.5q26 0 40 -14t14 -36q0 -40 -18 -74t-50.5 -54.5t-74.5 -20.5h-91zM389 757q-38 0 -38 26q0 24 14 36.5t28 22.5t14 23q0 20 -40 20q-7 0 -16.5 -1t-18.5 -3q-34 -8 -42 15
q-4 12 0.5 22.5t20.5 15.5q17 6 39.5 9t46.5 3q49 0 77 -17t28 -46q0 -22 -11 -35t-26 -22.5t-26 -20t-11 -28.5q0 -20 -39 -20z" />
    <glyph glyph-name="uni1EE0" unicode="&#x1ee0;" horiz-adv-x="785" 
d="M393 -10q-102 0 -178.5 45t-118.5 126.5t-42 191.5q0 111 42 192t118 125.5t179 44.5t179 -44.5t118 -125.5t42 -191q0 -111 -42 -192.5t-118 -126.5t-179 -45zM393 100q97 0 151 67t54 186q0 120 -53.5 186t-151.5 66q-97 0 -151 -66t-54 -186q0 -119 54 -186t151 -67z
M494 641l-44 68q23 -1 40 -2.5t33 -1.5q53 0 74.5 23.5t21.5 65.5q0 21 14 33.5t41 12.5q26 0 40 -14t14 -36q0 -40 -18 -74t-50.5 -54.5t-74.5 -20.5h-91zM208 769q-14 1 -22.5 10.5t-5.5 27.5q9 55 42.5 86t79.5 31q26 0 46 -10t37.5 -23t35 -23t36.5 -10q22 0 37 13.5
t21 32.5q9 28 36 27q14 -1 22.5 -10.5t5.5 -27.5q-9 -55 -42 -86t-80 -31q-25 0 -45.5 10t-38.5 23t-35 23t-36 10q-22 0 -37 -13.5t-21 -32.5q-9 -28 -36 -27z" />
    <glyph glyph-name="Ohungarumlaut" unicode="&#x150;" horiz-adv-x="785" 
d="M393 -10q-102 0 -178.5 45t-118.5 126.5t-42 191.5q0 111 42 192t118 125.5t179 44.5t179 -44.5t118 -125.5t42 -191q0 -111 -42 -192.5t-118 -126.5t-179 -45zM393 100q97 0 151 67t54 186q0 120 -53.5 186t-151.5 66q-97 0 -151 -66t-54 -186q0 -119 54 -186t151 -67z
M505 770q-13 -16 -29.5 -14t-25 16.5t1.5 32.5l66 121q11 21 29.5 24t34 -6t20.5 -25.5t-10 -36.5zM360 773q-13 -18 -30 -16.5t-27 15t-1 31.5l60 122q11 21 29 24.5t34.5 -5t22.5 -25.5t-9 -37z" />
    <glyph glyph-name="uni020E" unicode="&#x20e;" horiz-adv-x="785" 
d="M393 -10q-102 0 -178.5 45t-118.5 126.5t-42 191.5q0 111 42 192t118 125.5t179 44.5t179 -44.5t118 -125.5t42 -191q0 -111 -42 -192.5t-118 -126.5t-179 -45zM393 100q97 0 151 67t54 186q0 120 -53.5 186t-151.5 66q-97 0 -151 -66t-54 -186q0 -119 54 -186t151 -67z
M243 760q-14 2 -23.5 14.5t-4.5 32.5q17 65 64.5 98.5t112.5 33.5t113 -33.5t64 -98.5q5 -20 -4.5 -32.5t-23.5 -14.5q-21 -2 -31 7.5t-13 21.5q-10 41 -40 58.5t-65 17.5q-34 0 -64 -17.5t-41 -58.5q-3 -12 -13 -21.5t-31 -7.5z" />
    <glyph glyph-name="Omacron" unicode="&#x14c;" horiz-adv-x="785" 
d="M393 -10q-102 0 -178.5 45t-118.5 126.5t-42 191.5q0 111 42 192t118 125.5t179 44.5t179 -44.5t118 -125.5t42 -191q0 -111 -42 -192.5t-118 -126.5t-179 -45zM393 100q97 0 151 67t54 186q0 120 -53.5 186t-151.5 66q-97 0 -151 -66t-54 -186q0 -119 54 -186t151 -67z
M254 806q-39 0 -39 37t39 37h277q39 0 39 -37t-39 -37h-277z" />
    <glyph glyph-name="uni1E52" unicode="&#x1e52;" horiz-adv-x="785" 
d="M393 -10q-102 0 -178.5 45t-118.5 126.5t-42 191.5q0 111 42 192t118 125.5t179 44.5t179 -44.5t118 -125.5t42 -191q0 -111 -42 -192.5t-118 -126.5t-179 -45zM393 100q97 0 151 67t54 186q0 120 -53.5 186t-151.5 66q-97 0 -151 -66t-54 -186q0 -119 54 -186t151 -67z
M431 893q-14 -16 -32 -13.5t-27 17t1 33.5l49 89q12 21 31.5 24.5t36 -6t22 -26.5t-10.5 -36zM272 783q-42 0 -42 37t42 37h240q42 0 42 -37t-42 -37h-240z" />
    <glyph glyph-name="uni1E50" unicode="&#x1e50;" horiz-adv-x="785" 
d="M393 -10q-102 0 -178.5 45t-118.5 126.5t-42 191.5q0 111 42 192t118 125.5t179 44.5t179 -44.5t118 -125.5t42 -191q0 -111 -42 -192.5t-118 -126.5t-179 -45zM393 100q97 0 151 67t54 186q0 120 -53.5 186t-151.5 66q-97 0 -151 -66t-54 -186q0 -119 54 -186t151 -67z
M353 893l-70 82q-16 19 -10.5 36t22 26.5t36 6t31.5 -24.5l49 -89q11 -19 1.5 -33.5t-27 -17t-32.5 13.5zM272 783q-42 0 -42 37t42 37h240q42 0 42 -37t-42 -37h-240z" />
    <glyph glyph-name="uni01EA" unicode="&#x1ea;" horiz-adv-x="785" 
d="M393 -10q-102 0 -178.5 45t-118.5 126.5t-42 191.5q0 111 42 192t118 125.5t179 44.5t179 -44.5t118 -125.5t42 -191q0 -111 -42 -192.5t-118 -126.5t-179 -45zM393 100q97 0 151 67t54 186q0 120 -53.5 186t-151.5 66q-97 0 -151 -66t-54 -186q0 -119 54 -186t151 -67z
M431 -195q-55 0 -86.5 28t-31.5 76q0 42 28 78t74 55l37 -42q-25 -10 -42.5 -30.5t-17.5 -46.5q0 -25 16 -38t40 -13q15 0 30 4q24 7 34 -6t6 -30.5t-24 -25.5q-16 -6 -32.5 -7.5t-30.5 -1.5z" />
    <glyph glyph-name="Oslash" unicode="&#xd8;" horiz-adv-x="785" 
d="M393 -10q-102 0 -178.5 45t-118.5 126.5t-42 191.5q0 111 42 192t118 125.5t179 44.5t179 -44.5t118 -125.5t42 -191q0 -111 -42 -192.5t-118 -126.5t-179 -45zM393 100q97 0 151 67t54 186q0 120 -53.5 186t-151.5 66q-97 0 -151 -66t-54 -186q0 -119 54 -186t151 -67z
M227 -29q-12 -21 -31 -24t-36 6.5t-23 28.5t7 41l81 135l263 451l26 48l45 77q12 21 31 24t35.5 -6.5t23 -27.5t-6.5 -41l-45 -76l-36 -60l-263 -450l-26 -48z" />
    <glyph glyph-name="Oslashacute" unicode="&#x1fe;" horiz-adv-x="785" 
d="M393 -10q-102 0 -178.5 45t-118.5 126.5t-42 191.5q0 111 42 192t118 125.5t179 44.5t179 -44.5t118 -125.5t42 -191q0 -111 -42 -192.5t-118 -126.5t-179 -45zM393 100q97 0 151 67t54 186q0 120 -53.5 186t-151.5 66q-97 0 -151 -66t-54 -186q0 -119 54 -186t151 -67z
M227 -29q-12 -21 -31 -24t-36 6.5t-23 28.5t7 41l81 135l263 451l26 48l45 77q12 21 31 24t35.5 -6.5t23 -27.5t-6.5 -41l-45 -76l-36 -60l-263 -450l-26 -48zM443 771q-12 -13 -26.5 -13.5t-26 8t-15 21.5t5.5 27l78 115q14 21 34 22t36.5 -10.5t21 -29t-11.5 -35.5z" />
    <glyph glyph-name="Otilde" unicode="&#xd5;" horiz-adv-x="785" 
d="M393 -10q-102 0 -178.5 45t-118.5 126.5t-42 191.5q0 111 42 192t118 125.5t179 44.5t179 -44.5t118 -125.5t42 -191q0 -111 -42 -192.5t-118 -126.5t-179 -45zM393 100q97 0 151 67t54 186q0 120 -53.5 186t-151.5 66q-97 0 -151 -66t-54 -186q0 -119 54 -186t151 -67z
M203 769q-16 1 -25 11t-5 27q12 56 46.5 86.5t83.5 30.5q28 0 52 -10t46 -23t42.5 -23t40.5 -10q26 0 41.5 13.5t20.5 33.5q8 28 35 26q16 -1 25 -11t5 -27q-12 -56 -45.5 -86.5t-83.5 -30.5q-28 0 -52.5 10t-46.5 23t-42.5 23t-40.5 10q-25 0 -41 -13.5t-21 -33.5
q-8 -28 -35 -26z" />
    <glyph glyph-name="uni1E4C" unicode="&#x1e4c;" horiz-adv-x="785" 
d="M393 -10q-102 0 -178.5 45t-118.5 126.5t-42 191.5q0 111 42 192t118 125.5t179 44.5t179 -44.5t118 -125.5t42 -191q0 -111 -42 -192.5t-118 -126.5t-179 -45zM393 100q97 0 151 67t54 186q0 120 -53.5 186t-151.5 66q-97 0 -151 -66t-54 -186q0 -119 54 -186t151 -67z
M431 894q-14 -16 -31.5 -14t-27 16.5t0.5 33.5l49 89q12 21 31 24t36 -7t22 -27.5t-12 -36.5zM251 765q-14 1 -21.5 11t-3.5 26q10 37 36.5 56t63.5 19q27 0 49 -11t41.5 -22t38.5 -11q15 0 27 5.5t17 18.5q9 23 35 22q14 -1 22 -10.5t3 -26.5q-10 -37 -36.5 -56t-63.5 -19
q-27 0 -49.5 11t-41.5 22t-38 11q-15 0 -27 -5.5t-17 -18.5q-9 -23 -35 -22z" />
    <glyph glyph-name="uni1E4E" unicode="&#x1e4e;" horiz-adv-x="785" 
d="M393 -10q-102 0 -178.5 45t-118.5 126.5t-42 191.5q0 111 42 192t118 125.5t179 44.5t179 -44.5t118 -125.5t42 -191q0 -111 -42 -192.5t-118 -126.5t-179 -45zM393 100q97 0 151 67t54 186q0 120 -53.5 186t-151.5 66q-97 0 -151 -66t-54 -186q0 -119 54 -186t151 -67z
M298 909q-29 0 -45.5 12.5t-16.5 35.5t16.5 35.5t45.5 12.5q62 0 62 -48t-62 -48zM487 909q-62 0 -62 48t62 48q61 0 61 -48t-61 -48zM251 765q-14 1 -21.5 11t-3.5 26q10 37 36.5 56t63.5 19q27 0 49 -11t41.5 -22t38.5 -11q15 0 27 5.5t17 18.5q9 23 35 22q14 -1 22 -10.5
t3 -26.5q-10 -37 -36.5 -56t-63.5 -19q-27 0 -49.5 11t-41.5 22t-38 11q-15 0 -27 -5.5t-17 -18.5q-9 -23 -35 -22z" />
    <glyph glyph-name="uni022C" unicode="&#x22c;" horiz-adv-x="785" 
d="M393 -10q-102 0 -178.5 45t-118.5 126.5t-42 191.5q0 111 42 192t118 125.5t179 44.5t179 -44.5t118 -125.5t42 -191q0 -111 -42 -192.5t-118 -126.5t-179 -45zM393 100q97 0 151 67t54 186q0 120 -53.5 186t-151.5 66q-97 0 -151 -66t-54 -186q0 -119 54 -186t151 -67z
M272 924q-42 0 -42 37t42 37h240q42 0 42 -37t-42 -37h-240zM251 765q-14 1 -21.5 11t-3.5 26q10 37 36.5 56t63.5 19q27 0 49 -11t41.5 -22t38.5 -11q15 0 27 5.5t17 18.5q9 23 35 22q14 -1 22 -10.5t3 -26.5q-10 -37 -36.5 -56t-63.5 -19q-27 0 -49.5 11t-41.5 22t-38 11
q-15 0 -27 -5.5t-17 -18.5q-9 -23 -35 -22z" />
    <glyph glyph-name="OE" unicode="&#x152;" horiz-adv-x="1056" 
d="M424 0q-177 0 -273.5 92t-96.5 261q0 170 96.5 261t273.5 91h537q52 0 52 -50q0 -52 -52 -52h-302v-194h280q52 0 52 -51t-52 -51h-280v-205h302q52 0 52 -51t-52 -51h-537zM432 106h104v493h-104q-244 0 -244 -246q0 -247 244 -247z" />
    <glyph glyph-name="P" unicode="P" horiz-adv-x="652" 
d="M141 -8q-64 0 -64 66v582q0 65 65 65h241q116 0 179 -58t63 -162t-63 -162.5t-179 -58.5h-178v-206q0 -66 -64 -66zM205 365h158q138 0 138 120q0 119 -138 119h-158v-239z" />
    <glyph glyph-name="Thorn" unicode="&#xde;" horiz-adv-x="655" 
d="M141 -3q-64 0 -64 66v580q0 65 66 65q30 0 46 -16t16 -42v-63h180q116 0 179 -58t63 -162t-63 -162.5t-179 -58.5h-180v-83q0 -66 -64 -66zM205 247h160q138 0 138 120q0 119 -138 119h-160v-239z" />
    <glyph glyph-name="Q" unicode="Q" horiz-adv-x="785" 
d="M663 -113q17 -27 9.5 -48.5t-29 -32t-46 -5.5t-41.5 32l-69 111q-28 46 -95 46v0q-102 0 -178 45t-118 126.5t-42 191.5q0 111 42 192t118 125.5t179 44.5t179 -44.5t118 -125.5t42 -191q0 -120 -49.5 -206t-136.5 -126q22 -8 39.5 -24t34.5 -43zM393 100q97 0 151 67
t54 186q0 120 -53.5 186t-151.5 66q-97 0 -151 -66t-54 -186q0 -119 54 -186t151 -67z" />
    <glyph glyph-name="R" unicode="R" horiz-adv-x="686" 
d="M141 -8q-64 0 -64 66v582q0 65 65 65h241q116 0 179 -55.5t63 -155.5q0 -79 -41 -130.5t-118 -69.5q51 -16 84 -77l75 -139q17 -32 6.5 -59t-51.5 -27q-27 0 -44 11.5t-30 35.5l-101 186q-18 34 -42.5 45.5t-62.5 11.5h-95v-224q0 -66 -64 -66zM205 377h156
q140 0 140 114q0 113 -140 113h-156v-227z" />
    <glyph glyph-name="Racute" unicode="&#x154;" horiz-adv-x="686" 
d="M141 -8q-64 0 -64 66v582q0 65 65 65h241q116 0 179 -55.5t63 -155.5q0 -79 -41 -130.5t-118 -69.5q51 -16 84 -77l75 -139q17 -32 6.5 -59t-51.5 -27q-27 0 -44 11.5t-30 35.5l-101 186q-18 34 -42.5 45.5t-62.5 11.5h-95v-224q0 -66 -64 -66zM205 377h156
q140 0 140 114q0 113 -140 113h-156v-227zM399 771q-12 -13 -26.5 -13.5t-26 8t-15 21.5t5.5 27l78 115q14 21 34 22t36.5 -10.5t21 -29t-11.5 -35.5z" />
    <glyph glyph-name="Rcaron" unicode="&#x158;" horiz-adv-x="686" 
d="M141 -8q-64 0 -64 66v582q0 65 65 65h241q116 0 179 -55.5t63 -155.5q0 -79 -41 -130.5t-118 -69.5q51 -16 84 -77l75 -139q17 -32 6.5 -59t-51.5 -27q-27 0 -44 11.5t-30 35.5l-101 186q-18 34 -42.5 45.5t-62.5 11.5h-95v-224q0 -66 -64 -66zM205 377h156
q140 0 140 114q0 113 -140 113h-156v-227zM348 754q-46 0 -73 39l-73 102q-10 14 -6.5 27t15.5 20.5t26.5 6t26.5 -15.5l84 -98l85 98q16 19 35.5 16t29.5 -18.5t-4 -35.5l-72 -102q-27 -39 -74 -39z" />
    <glyph glyph-name="uni0156" unicode="&#x156;" horiz-adv-x="686" 
d="M141 -8q-64 0 -64 66v582q0 65 65 65h241q116 0 179 -55.5t63 -155.5q0 -79 -41 -130.5t-118 -69.5q51 -16 84 -77l75 -139q17 -32 6.5 -59t-51.5 -27q-27 0 -44 11.5t-30 35.5l-101 186q-18 34 -42.5 45.5t-62.5 11.5h-95v-224q0 -66 -64 -66zM205 377h156
q140 0 140 114q0 113 -140 113h-156v-227zM375 -260q-13 -16 -29.5 -14t-24 15.5t6.5 33.5q12 18 17 41q-64 3 -64 59q0 58 67 58q68 0 68 -69q0 -31 -10 -64.5t-31 -59.5z" />
    <glyph glyph-name="uni0210" unicode="&#x210;" horiz-adv-x="686" 
d="M141 -8q-64 0 -64 66v582q0 65 65 65h241q116 0 179 -55.5t63 -155.5q0 -79 -41 -130.5t-118 -69.5q51 -16 84 -77l75 -139q17 -32 6.5 -59t-51.5 -27q-27 0 -44 11.5t-30 35.5l-101 186q-18 34 -42.5 45.5t-62.5 11.5h-95v-224q0 -66 -64 -66zM205 377h156
q140 0 140 114q0 113 -140 113h-156v-227zM236 770l-87 112q-15 20 -10 36.5t20.5 26t34 6t29.5 -24.5l65 -121q10 -18 1 -32t-24.5 -16.5t-28.5 13.5zM380 773l-79 109q-15 20 -9 37t22.5 25.5t35 5t28.5 -24.5l61 -122q9 -18 -1 -31.5t-27.5 -15t-30.5 16.5z" />
    <glyph glyph-name="uni1E5A" unicode="&#x1e5a;" horiz-adv-x="686" 
d="M141 -8q-64 0 -64 66v582q0 65 65 65h241q116 0 179 -55.5t63 -155.5q0 -79 -41 -130.5t-118 -69.5q51 -16 84 -77l75 -139q17 -32 6.5 -59t-51.5 -27q-27 0 -44 11.5t-30 35.5l-101 186q-18 34 -42.5 45.5t-62.5 11.5h-95v-224q0 -66 -64 -66zM205 377h156
q140 0 140 114q0 113 -140 113h-156v-227zM349 -209q-65 0 -65 63q0 62 65 62q66 0 66 -62q0 -63 -66 -63z" />
    <glyph glyph-name="uni0212" unicode="&#x212;" horiz-adv-x="686" 
d="M141 -8q-64 0 -64 66v582q0 65 65 65h241q116 0 179 -55.5t63 -155.5q0 -79 -41 -130.5t-118 -69.5q51 -16 84 -77l75 -139q17 -32 6.5 -59t-51.5 -27q-27 0 -44 11.5t-30 35.5l-101 186q-18 34 -42.5 45.5t-62.5 11.5h-95v-224q0 -66 -64 -66zM205 377h156
q140 0 140 114q0 113 -140 113h-156v-227zM199 760q-14 2 -23.5 14.5t-4.5 32.5q17 65 64.5 98.5t112.5 33.5t113 -33.5t64 -98.5q5 -20 -4.5 -32.5t-23.5 -14.5q-21 -2 -31 7.5t-13 21.5q-10 41 -40 58.5t-65 17.5q-34 0 -64 -17.5t-41 -58.5q-3 -12 -13 -21.5t-31 -7.5z
" />
    <glyph glyph-name="uni1E5E" unicode="&#x1e5e;" horiz-adv-x="686" 
d="M141 -8q-64 0 -64 66v582q0 65 65 65h241q116 0 179 -55.5t63 -155.5q0 -79 -41 -130.5t-118 -69.5q51 -16 84 -77l75 -139q17 -32 6.5 -59t-51.5 -27q-27 0 -44 11.5t-30 35.5l-101 186q-18 34 -42.5 45.5t-62.5 11.5h-95v-224q0 -66 -64 -66zM205 377h156
q140 0 140 114q0 113 -140 113h-156v-227zM226 -165q-39 0 -39 37t39 37h247q39 0 39 -37t-39 -37h-247z" />
    <glyph glyph-name="S" unicode="S" horiz-adv-x="631" 
d="M320 -10q-67 0 -130.5 15t-110.5 45q-23 15 -28 37t3.5 41.5t27 27t42.5 -7.5q44 -26 93 -38t103 -12q79 0 115 26.5t36 68.5q0 35 -25.5 55t-87.5 33l-110 23q-188 40 -188 193q0 66 35 115t97 76t143 27q60 0 114 -15t97 -44q20 -14 24 -34.5t-5 -38t-28.5 -24
t-45.5 8.5q-37 21 -75 30t-82 9q-69 0 -108 -29t-39 -76q0 -36 24 -57.5t82 -33.5l109 -23q99 -21 147.5 -66t48.5 -120q0 -63 -34 -111t-96.5 -74.5t-147.5 -26.5z" />
    <glyph glyph-name="Sacute" unicode="&#x15a;" horiz-adv-x="631" 
d="M320 -10q-67 0 -130.5 15t-110.5 45q-23 15 -28 37t3.5 41.5t27 27t42.5 -7.5q44 -26 93 -38t103 -12q79 0 115 26.5t36 68.5q0 35 -25.5 55t-87.5 33l-110 23q-188 40 -188 193q0 66 35 115t97 76t143 27q60 0 114 -15t97 -44q20 -14 24 -34.5t-5 -38t-28.5 -24
t-45.5 8.5q-37 21 -75 30t-82 9q-69 0 -108 -29t-39 -76q0 -36 24 -57.5t82 -33.5l109 -23q99 -21 147.5 -66t48.5 -120q0 -63 -34 -111t-96.5 -74.5t-147.5 -26.5zM376 771q-12 -13 -26.5 -13.5t-26 8t-15 21.5t5.5 27l78 115q14 21 34 22t36.5 -10.5t21 -29t-11.5 -35.5z
" />
    <glyph glyph-name="uni1E64" unicode="&#x1e64;" horiz-adv-x="631" 
d="M320 -10q-67 0 -130.5 15t-110.5 45q-23 15 -28 37t3.5 41.5t27 27t42.5 -7.5q44 -26 93 -38t103 -12q79 0 115 26.5t36 68.5q0 35 -25.5 55t-87.5 33l-110 23q-188 40 -188 193q0 66 35 115t97 76t143 27q60 0 114 -15t97 -44q20 -14 24 -34.5t-5 -38t-28.5 -24
t-45.5 8.5q-37 21 -75 30t-82 9q-69 0 -108 -29t-39 -76q0 -36 24 -57.5t82 -33.5l109 -23q99 -21 147.5 -66t48.5 -120q0 -63 -34 -111t-96.5 -74.5t-147.5 -26.5zM269 929q-63 0 -63 49q0 48 63 48q61 0 61 -48q0 -49 -61 -49zM376 772q-16 -18 -35.5 -14t-29 21t3.5 36
l78 116q16 23 36.5 25t36.5 -9.5t20.5 -30.5t-12.5 -37z" />
    <glyph glyph-name="Scaron" unicode="&#x160;" horiz-adv-x="631" 
d="M320 -10q-67 0 -130.5 15t-110.5 45q-23 15 -28 37t3.5 41.5t27 27t42.5 -7.5q44 -26 93 -38t103 -12q79 0 115 26.5t36 68.5q0 35 -25.5 55t-87.5 33l-110 23q-188 40 -188 193q0 66 35 115t97 76t143 27q60 0 114 -15t97 -44q20 -14 24 -34.5t-5 -38t-28.5 -24
t-45.5 8.5q-37 21 -75 30t-82 9q-69 0 -108 -29t-39 -76q0 -36 24 -57.5t82 -33.5l109 -23q99 -21 147.5 -66t48.5 -120q0 -63 -34 -111t-96.5 -74.5t-147.5 -26.5zM325 754q-46 0 -73 39l-73 102q-10 14 -6.5 27t15.5 20.5t26.5 6t26.5 -15.5l84 -98l85 98q16 19 35.5 16
t29.5 -18.5t-4 -35.5l-72 -102q-27 -39 -74 -39z" />
    <glyph glyph-name="uni1E66" unicode="&#x1e66;" horiz-adv-x="631" 
d="M320 -10q-67 0 -130.5 15t-110.5 45q-23 15 -28 37t3.5 41.5t27 27t42.5 -7.5q44 -26 93 -38t103 -12q79 0 115 26.5t36 68.5q0 35 -25.5 55t-87.5 33l-110 23q-188 40 -188 193q0 66 35 115t97 76t143 27q60 0 114 -15t97 -44q20 -14 24 -34.5t-5 -38t-28.5 -24
t-45.5 8.5q-37 21 -75 30t-82 9q-69 0 -108 -29t-39 -76q0 -36 24 -57.5t82 -33.5l109 -23q99 -21 147.5 -66t48.5 -120q0 -63 -34 -111t-96.5 -74.5t-147.5 -26.5zM326 958q-29 0 -45.5 13t-16.5 36t16.5 35.5t45.5 12.5q62 0 62 -48q0 -49 -62 -49zM325 755q-23 0 -40.5 8
t-32.5 29l-71 102q-10 15 -3 29.5t23 19t30 -10.5l94 -98l95 98q15 15 30 10.5t22.5 -19t-3.5 -29.5l-70 -102q-14 -21 -32.5 -29t-41.5 -8z" />
    <glyph glyph-name="Scedilla" unicode="&#x15e;" horiz-adv-x="631" 
d="M320 -10q-67 0 -130.5 15t-110.5 45q-23 15 -28 37t3.5 41.5t27 27t42.5 -7.5q44 -26 93 -38t103 -12q79 0 115 26.5t36 68.5q0 35 -25.5 55t-87.5 33l-110 23q-188 40 -188 193q0 66 35 115t97 76t143 27q60 0 114 -15t97 -44q20 -14 24 -34.5t-5 -38t-28.5 -24
t-45.5 8.5q-37 21 -75 30t-82 9q-69 0 -108 -29t-39 -76q0 -36 24 -57.5t82 -33.5l109 -23q99 -21 147.5 -66t48.5 -120q0 -63 -34 -111t-96.5 -74.5t-147.5 -26.5zM324 -195q-19 0 -40 2.5t-38 8.5q-20 7 -23 24t8.5 29t31.5 4q23 -8 51 -8q54 0 54 30q0 23 -37 23
q-7 0 -14.5 -0.5t-15.5 -2.5q-14 -4 -23 3q-8 7 -5 26l11 76h67l-10 -58q6 1 11 1q41 0 66 -19t25 -53q0 -39 -33 -62.5t-86 -23.5z" />
    <glyph glyph-name="Scircumflex" unicode="&#x15c;" horiz-adv-x="631" 
d="M320 -10q-67 0 -130.5 15t-110.5 45q-23 15 -28 37t3.5 41.5t27 27t42.5 -7.5q44 -26 93 -38t103 -12q79 0 115 26.5t36 68.5q0 35 -25.5 55t-87.5 33l-110 23q-188 40 -188 193q0 66 35 115t97 76t143 27q60 0 114 -15t97 -44q20 -14 24 -34.5t-5 -38t-28.5 -24
t-45.5 8.5q-37 21 -75 30t-82 9q-69 0 -108 -29t-39 -76q0 -36 24 -57.5t82 -33.5l109 -23q99 -21 147.5 -66t48.5 -120q0 -63 -34 -111t-96.5 -74.5t-147.5 -26.5zM241 771q-16 -17 -36 -14t-29.5 18.5t3.5 34.5l73 101q27 40 73 40q45 0 74 -40l72 -101q14 -19 4.5 -34.5
t-29 -18.5t-36.5 14l-85 98z" />
    <glyph glyph-name="uni0218" unicode="&#x218;" horiz-adv-x="631" 
d="M320 -10q-67 0 -130.5 15t-110.5 45q-23 15 -28 37t3.5 41.5t27 27t42.5 -7.5q44 -26 93 -38t103 -12q79 0 115 26.5t36 68.5q0 35 -25.5 55t-87.5 33l-110 23q-188 40 -188 193q0 66 35 115t97 76t143 27q60 0 114 -15t97 -44q20 -14 24 -34.5t-5 -38t-28.5 -24
t-45.5 8.5q-37 21 -75 30t-82 9q-69 0 -108 -29t-39 -76q0 -36 24 -57.5t82 -33.5l109 -23q99 -21 147.5 -66t48.5 -120q0 -63 -34 -111t-96.5 -74.5t-147.5 -26.5zM349 -260q-13 -16 -29.5 -14t-24 15.5t6.5 33.5q12 18 17 41q-64 3 -64 59q0 58 67 58q68 0 68 -69
q0 -31 -10 -64.5t-31 -59.5z" />
    <glyph glyph-name="uni1E60" unicode="&#x1e60;" horiz-adv-x="631" 
d="M320 -10q-67 0 -130.5 15t-110.5 45q-23 15 -28 37t3.5 41.5t27 27t42.5 -7.5q44 -26 93 -38t103 -12q79 0 115 26.5t36 68.5q0 35 -25.5 55t-87.5 33l-110 23q-188 40 -188 193q0 66 35 115t97 76t143 27q60 0 114 -15t97 -44q20 -14 24 -34.5t-5 -38t-28.5 -24
t-45.5 8.5q-37 21 -75 30t-82 9q-69 0 -108 -29t-39 -76q0 -36 24 -57.5t82 -33.5l109 -23q99 -21 147.5 -66t48.5 -120q0 -63 -34 -111t-96.5 -74.5t-147.5 -26.5zM325 789q-65 0 -65 63q0 62 65 62t65 -62q0 -63 -65 -63z" />
    <glyph glyph-name="uni1E62" unicode="&#x1e62;" horiz-adv-x="631" 
d="M320 -10q-67 0 -130.5 15t-110.5 45q-23 15 -28 37t3.5 41.5t27 27t42.5 -7.5q44 -26 93 -38t103 -12q79 0 115 26.5t36 68.5q0 35 -25.5 55t-87.5 33l-110 23q-188 40 -188 193q0 66 35 115t97 76t143 27q60 0 114 -15t97 -44q20 -14 24 -34.5t-5 -38t-28.5 -24
t-45.5 8.5q-37 21 -75 30t-82 9q-69 0 -108 -29t-39 -76q0 -36 24 -57.5t82 -33.5l109 -23q99 -21 147.5 -66t48.5 -120q0 -63 -34 -111t-96.5 -74.5t-147.5 -26.5zM323 -209q-65 0 -65 63q0 62 65 62q66 0 66 -62q0 -63 -66 -63z" />
    <glyph glyph-name="uni1E68" unicode="&#x1e68;" horiz-adv-x="631" 
d="M320 -10q-67 0 -130.5 15t-110.5 45q-23 15 -28 37t3.5 41.5t27 27t42.5 -7.5q44 -26 93 -38t103 -12q79 0 115 26.5t36 68.5q0 35 -25.5 55t-87.5 33l-110 23q-188 40 -188 193q0 66 35 115t97 76t143 27q60 0 114 -15t97 -44q20 -14 24 -34.5t-5 -38t-28.5 -24
t-45.5 8.5q-37 21 -75 30t-82 9q-69 0 -108 -29t-39 -76q0 -36 24 -57.5t82 -33.5l109 -23q99 -21 147.5 -66t48.5 -120q0 -63 -34 -111t-96.5 -74.5t-147.5 -26.5zM323 -209q-65 0 -65 63q0 62 65 62q66 0 66 -62q0 -63 -66 -63zM325 789q-65 0 -65 63q0 62 65 62t65 -62
q0 -63 -65 -63z" />
    <glyph glyph-name="uni1E9E" unicode="&#x1e9e;" horiz-adv-x="730" 
d="M452 -10q-101 0 -166 40q-21 13 -25 32.5t4.5 37.5t25 25.5t35.5 -3.5q29 -16 56 -22.5t57 -6.5q56 0 85.5 28.5t29.5 77.5q0 104 -137 104h-72q-22 0 -36.5 13t-14.5 38t13 37t33 12h58q55 0 87 27t32 77q0 104 -139 104q-173 0 -173 -162v-391q0 -66 -64 -66t-64 66
v392q0 131 80 198t227 67q119 0 188 -51t69 -139q0 -54 -25 -95.5t-71 -63.5q61 -16 97 -61.5t36 -113.5q0 -95 -59.5 -148t-166.5 -53z" />
    <glyph glyph-name="uni018F" unicode="&#x18f;" horiz-adv-x="785" 
d="M400 -10q-114 0 -191 47t-116 130.5t-39 193.5q0 45 41 45h500q-13 97 -74 148t-166 51q-102 0 -184 -43q-27 -14 -47.5 -7t-29.5 26t-3.5 40.5t28.5 34.5q102 59 251 59q110 0 191 -44t126 -125t45 -194q0 -111 -42 -192t-116.5 -125.5t-173.5 -44.5zM394 96
q86 0 138.5 52.5t62.5 153.5h-407q20 -206 206 -206z" />
    <glyph glyph-name="T" unicode="T" horiz-adv-x="621" 
d="M311 -8q-64 0 -64 66v540h-195q-55 0 -55 54q0 53 55 53h518q55 0 55 -53q0 -54 -55 -54h-195v-540q0 -66 -64 -66z" />
    <glyph glyph-name="Tbar" unicode="&#x166;" horiz-adv-x="621" 
d="M311 -8q-64 0 -64 66v540h-195q-55 0 -55 54q0 53 55 53h518q55 0 55 -53q0 -54 -55 -54h-195v-540q0 -66 -64 -66zM149 310q-49 0 -49 47t49 47h323q49 0 49 -47t-49 -47h-323z" />
    <glyph glyph-name="Tcaron" unicode="&#x164;" horiz-adv-x="621" 
d="M311 -8q-64 0 -64 66v540h-195q-55 0 -55 54q0 53 55 53h518q55 0 55 -53q0 -54 -55 -54h-195v-540q0 -66 -64 -66zM311 754q-46 0 -73 39l-73 102q-10 14 -6.5 27t15.5 20.5t26.5 6t26.5 -15.5l84 -98l85 98q16 19 35.5 16t29.5 -18.5t-4 -35.5l-72 -102
q-27 -39 -74 -39z" />
    <glyph glyph-name="uni0162" unicode="&#x162;" horiz-adv-x="621" 
d="M311 -8q-64 0 -64 66v540h-195q-55 0 -55 54q0 53 55 53h518q55 0 55 -53q0 -54 -55 -54h-195v-540q0 -66 -64 -66zM312 -195q-19 0 -40 2.5t-38 8.5q-20 7 -23 24t8.5 29t31.5 4q23 -8 51 -8q54 0 54 30q0 23 -37 23q-7 0 -14.5 -0.5t-15.5 -2.5q-14 -4 -23 3
q-8 7 -5 26l11 76h67l-10 -58q6 1 11 1q41 0 66 -19t25 -53q0 -39 -33 -62.5t-86 -23.5z" />
    <glyph glyph-name="uni021A" unicode="&#x21a;" horiz-adv-x="621" 
d="M311 -8q-64 0 -64 66v540h-195q-55 0 -55 54q0 53 55 53h518q55 0 55 -53q0 -54 -55 -54h-195v-540q0 -66 -64 -66zM337 -260q-13 -16 -29.5 -14t-24 15.5t6.5 33.5q12 18 17 41q-64 3 -64 59q0 58 67 58q68 0 68 -69q0 -31 -10 -64.5t-31 -59.5z" />
    <glyph glyph-name="uni1E6C" unicode="&#x1e6c;" horiz-adv-x="621" 
d="M311 -8q-64 0 -64 66v540h-195q-55 0 -55 54q0 53 55 53h518q55 0 55 -53q0 -54 -55 -54h-195v-540q0 -66 -64 -66zM311 -209q-65 0 -65 63q0 62 65 62q66 0 66 -62q0 -63 -66 -63z" />
    <glyph glyph-name="uni1E6E" unicode="&#x1e6e;" horiz-adv-x="621" 
d="M311 -8q-64 0 -64 66v540h-195q-55 0 -55 54q0 53 55 53h518q55 0 55 -53q0 -54 -55 -54h-195v-540q0 -66 -64 -66zM188 -165q-39 0 -39 37t39 37h247q39 0 39 -37t-39 -37h-247z" />
    <glyph glyph-name="U" unicode="U" horiz-adv-x="738" 
d="M370 -10q-145 0 -221.5 75.5t-76.5 223.5v359q0 65 64 65t64 -65v-358q0 -95 43.5 -142.5t126.5 -47.5q169 0 169 190v358q0 65 64 65q63 0 63 -65v-359q0 -148 -75 -223.5t-221 -75.5z" />
    <glyph glyph-name="Uacute" unicode="&#xda;" horiz-adv-x="738" 
d="M370 -10q-145 0 -221.5 75.5t-76.5 223.5v359q0 65 64 65t64 -65v-358q0 -95 43.5 -142.5t126.5 -47.5q169 0 169 190v358q0 65 64 65q63 0 63 -65v-359q0 -148 -75 -223.5t-221 -75.5zM421 771q-12 -13 -26.5 -13.5t-26 8t-15 21.5t5.5 27l78 115q14 21 34 22
t36.5 -10.5t21 -29t-11.5 -35.5z" />
    <glyph glyph-name="Ubreve" unicode="&#x16c;" horiz-adv-x="738" 
d="M370 -10q-145 0 -221.5 75.5t-76.5 223.5v359q0 65 64 65t64 -65v-358q0 -95 43.5 -142.5t126.5 -47.5q169 0 169 190v358q0 65 64 65q63 0 63 -65v-359q0 -148 -75 -223.5t-221 -75.5zM370 760q-65 0 -112.5 34.5t-64.5 98.5q-5 20 4.5 33t23.5 14q21 2 31 -7.5
t13 -21.5q10 -41 40.5 -58.5t64.5 -17.5q35 0 65 17.5t40 58.5q3 12 13 21.5t31 7.5q14 -1 23.5 -14t4.5 -33q-16 -64 -64 -98.5t-113 -34.5z" />
    <glyph glyph-name="Ucircumflex" unicode="&#xdb;" horiz-adv-x="738" 
d="M370 -10q-145 0 -221.5 75.5t-76.5 223.5v359q0 65 64 65t64 -65v-358q0 -95 43.5 -142.5t126.5 -47.5q169 0 169 190v358q0 65 64 65q63 0 63 -65v-359q0 -148 -75 -223.5t-221 -75.5zM286 771q-16 -17 -36 -14t-29.5 18.5t3.5 34.5l73 101q27 40 73 40q45 0 74 -40
l72 -101q14 -19 4.5 -34.5t-29 -18.5t-36.5 14l-85 98z" />
    <glyph glyph-name="uni0214" unicode="&#x214;" horiz-adv-x="738" 
d="M370 -10q-145 0 -221.5 75.5t-76.5 223.5v359q0 65 64 65t64 -65v-358q0 -95 43.5 -142.5t126.5 -47.5q169 0 169 190v358q0 65 64 65q63 0 63 -65v-359q0 -148 -75 -223.5t-221 -75.5zM258 770l-87 112q-15 20 -10 36.5t20.5 26t34 6t29.5 -24.5l65 -121q10 -18 1 -32
t-24.5 -16.5t-28.5 13.5zM402 773l-79 109q-15 20 -9 37t22.5 25.5t35 5t28.5 -24.5l61 -122q9 -18 -1 -31.5t-27.5 -15t-30.5 16.5z" />
    <glyph glyph-name="Udieresis" unicode="&#xdc;" horiz-adv-x="738" 
d="M370 -10q-145 0 -221.5 75.5t-76.5 223.5v359q0 65 64 65t64 -65v-358q0 -95 43.5 -142.5t126.5 -47.5q169 0 169 190v358q0 65 64 65q63 0 63 -65v-359q0 -148 -75 -223.5t-221 -75.5zM465 786q-62 0 -62 62q0 61 62 61q61 0 61 -61q0 -62 -61 -62zM276 786
q-29 0 -45.5 16t-16.5 46q0 29 16.5 45t45.5 16q62 0 62 -61q0 -62 -62 -62z" />
    <glyph glyph-name="uni1EE4" unicode="&#x1ee4;" horiz-adv-x="738" 
d="M370 -10q-145 0 -221.5 75.5t-76.5 223.5v359q0 65 64 65t64 -65v-358q0 -95 43.5 -142.5t126.5 -47.5q169 0 169 190v358q0 65 64 65q63 0 63 -65v-359q0 -148 -75 -223.5t-221 -75.5zM370 -209q-65 0 -65 63q0 62 65 62q66 0 66 -62q0 -63 -66 -63z" />
    <glyph glyph-name="Ugrave" unicode="&#xd9;" horiz-adv-x="738" 
d="M370 -10q-145 0 -221.5 75.5t-76.5 223.5v359q0 65 64 65t64 -65v-358q0 -95 43.5 -142.5t126.5 -47.5q169 0 169 190v358q0 65 64 65q63 0 63 -65v-359q0 -148 -75 -223.5t-221 -75.5zM320 771l-96 105q-16 18 -11.5 35.5t21 29t36.5 10.5t34 -22l78 -115q9 -14 5.5 -27
t-15 -21.5t-26 -8t-26.5 13.5z" />
    <glyph glyph-name="uni1EE6" unicode="&#x1ee6;" horiz-adv-x="738" 
d="M370 -10q-145 0 -221.5 75.5t-76.5 223.5v359q0 65 64 65t64 -65v-358q0 -95 43.5 -142.5t126.5 -47.5q169 0 169 190v358q0 65 64 65q63 0 63 -65v-359q0 -148 -75 -223.5t-221 -75.5zM370 757q-38 0 -38 26q0 24 14 36.5t28 22.5t14 23q0 20 -40 20q-7 0 -16.5 -1
t-18.5 -3q-34 -8 -42 15q-4 12 0.5 22.5t20.5 15.5q17 6 39.5 9t46.5 3q49 0 77 -17t28 -46q0 -22 -11 -35t-26 -22.5t-26 -20t-11 -28.5q0 -20 -39 -20z" />
    <glyph glyph-name="Uhorn" unicode="&#x1af;" horiz-adv-x="738" 
d="M370 -10q-145 0 -221.5 75.5t-76.5 223.5v359q0 65 64 65t64 -65v-358q0 -95 43.5 -142.5t126.5 -47.5q169 0 169 190v358q0 65 64 65q63 0 63 -65v-359q0 -148 -75 -223.5t-221 -75.5zM644 641l-71 45v19q53 0 75 22t22 70q0 43 55 43t55 -43q0 -66 -36.5 -108
t-99.5 -48z" />
    <glyph glyph-name="uni1EE8" unicode="&#x1ee8;" horiz-adv-x="738" 
d="M370 -10q-145 0 -221.5 75.5t-76.5 223.5v359q0 65 64 65t64 -65v-358q0 -95 43.5 -142.5t126.5 -47.5q169 0 169 190v358q0 65 64 65q63 0 63 -65v-359q0 -148 -75 -223.5t-221 -75.5zM644 641l-71 45v19q53 0 75 22t22 70q0 43 55 43t55 -43q0 -66 -36.5 -108
t-99.5 -48zM421 771q-12 -13 -26.5 -13.5t-26 8t-15 21.5t5.5 27l78 115q14 21 34 22t36.5 -10.5t21 -29t-11.5 -35.5z" />
    <glyph glyph-name="uni1EF0" unicode="&#x1ef0;" horiz-adv-x="738" 
d="M370 -10q-145 0 -221.5 75.5t-76.5 223.5v359q0 65 64 65t64 -65v-358q0 -95 43.5 -142.5t126.5 -47.5q169 0 169 190v358q0 65 64 65q63 0 63 -65v-359q0 -148 -75 -223.5t-221 -75.5zM644 641l-71 45v19q53 0 75 22t22 70q0 43 55 43t55 -43q0 -66 -36.5 -108
t-99.5 -48zM370 -209q-65 0 -65 63q0 62 65 62q66 0 66 -62q0 -63 -66 -63z" />
    <glyph glyph-name="uni1EEA" unicode="&#x1eea;" horiz-adv-x="738" 
d="M370 -10q-145 0 -221.5 75.5t-76.5 223.5v359q0 65 64 65t64 -65v-358q0 -95 43.5 -142.5t126.5 -47.5q169 0 169 190v358q0 65 64 65q63 0 63 -65v-359q0 -148 -75 -223.5t-221 -75.5zM644 641l-71 45v19q53 0 75 22t22 70q0 43 55 43t55 -43q0 -66 -36.5 -108
t-99.5 -48zM320 771l-96 105q-16 18 -11.5 35.5t21 29t36.5 10.5t34 -22l78 -115q9 -14 5.5 -27t-15 -21.5t-26 -8t-26.5 13.5z" />
    <glyph glyph-name="uni1EEC" unicode="&#x1eec;" horiz-adv-x="738" 
d="M370 -10q-145 0 -221.5 75.5t-76.5 223.5v359q0 65 64 65t64 -65v-358q0 -95 43.5 -142.5t126.5 -47.5q169 0 169 190v358q0 65 64 65q63 0 63 -65v-359q0 -148 -75 -223.5t-221 -75.5zM644 641l-71 45v19q53 0 75 22t22 70q0 43 55 43t55 -43q0 -66 -36.5 -108
t-99.5 -48zM370 757q-38 0 -38 26q0 24 14 36.5t28 22.5t14 23q0 20 -40 20q-7 0 -16.5 -1t-18.5 -3q-34 -8 -42 15q-4 12 0.5 22.5t20.5 15.5q17 6 39.5 9t46.5 3q49 0 77 -17t28 -46q0 -22 -11 -35t-26 -22.5t-26 -20t-11 -28.5q0 -20 -39 -20z" />
    <glyph glyph-name="uni1EEE" unicode="&#x1eee;" horiz-adv-x="738" 
d="M370 -10q-145 0 -221.5 75.5t-76.5 223.5v359q0 65 64 65t64 -65v-358q0 -95 43.5 -142.5t126.5 -47.5q169 0 169 190v358q0 65 64 65q63 0 63 -65v-359q0 -148 -75 -223.5t-221 -75.5zM644 641l-71 45v19q53 0 75 22t22 70q0 43 55 43t55 -43q0 -66 -36.5 -108
t-99.5 -48zM189 769q-14 1 -22.5 10.5t-5.5 27.5q9 55 42.5 86t79.5 31q26 0 46 -10t37.5 -23t35 -23t36.5 -10q22 0 37 13.5t21 32.5q9 28 36 27q14 -1 22.5 -10.5t5.5 -27.5q-9 -55 -42 -86t-80 -31q-25 0 -45.5 10t-38.5 23t-35 23t-36 10q-22 0 -37 -13.5t-21 -32.5
q-9 -28 -36 -27z" />
    <glyph glyph-name="Uhungarumlaut" unicode="&#x170;" horiz-adv-x="738" 
d="M370 -10q-145 0 -221.5 75.5t-76.5 223.5v359q0 65 64 65t64 -65v-358q0 -95 43.5 -142.5t126.5 -47.5q169 0 169 190v358q0 65 64 65q63 0 63 -65v-359q0 -148 -75 -223.5t-221 -75.5zM483 770q-13 -16 -29.5 -14t-25 16.5t1.5 32.5l66 121q11 21 29.5 24t34 -6
t20.5 -25.5t-10 -36.5zM338 773q-13 -18 -30 -16.5t-27 15t-1 31.5l60 122q11 21 29 24.5t34.5 -5t22.5 -25.5t-9 -37z" />
    <glyph glyph-name="uni0216" unicode="&#x216;" horiz-adv-x="738" 
d="M370 -10q-145 0 -221.5 75.5t-76.5 223.5v359q0 65 64 65t64 -65v-358q0 -95 43.5 -142.5t126.5 -47.5q169 0 169 190v358q0 65 64 65q63 0 63 -65v-359q0 -148 -75 -223.5t-221 -75.5zM221 760q-14 2 -23.5 14.5t-4.5 32.5q17 65 64.5 98.5t112.5 33.5t113 -33.5
t64 -98.5q5 -20 -4.5 -32.5t-23.5 -14.5q-21 -2 -31 7.5t-13 21.5q-10 41 -40 58.5t-65 17.5q-34 0 -64 -17.5t-41 -58.5q-3 -12 -13 -21.5t-31 -7.5z" />
    <glyph glyph-name="Umacron" unicode="&#x16a;" horiz-adv-x="738" 
d="M370 -10q-145 0 -221.5 75.5t-76.5 223.5v359q0 65 64 65t64 -65v-358q0 -95 43.5 -142.5t126.5 -47.5q169 0 169 190v358q0 65 64 65q63 0 63 -65v-359q0 -148 -75 -223.5t-221 -75.5zM232 806q-39 0 -39 37t39 37h277q39 0 39 -37t-39 -37h-277z" />
    <glyph glyph-name="uni1E7A" unicode="&#x1e7a;" horiz-adv-x="738" 
d="M370 -10q-145 0 -221.5 75.5t-76.5 223.5v359q0 65 64 65t64 -65v-358q0 -95 43.5 -142.5t126.5 -47.5q169 0 169 190v358q0 65 64 65q63 0 63 -65v-359q0 -148 -75 -223.5t-221 -75.5zM276 906q-29 0 -45.5 12.5t-16.5 35.5t16.5 36t45.5 13q62 0 62 -49q0 -48 -62 -48z
M465 906q-62 0 -62 48q0 49 62 49q61 0 61 -49q0 -48 -61 -48zM250 788q-42 0 -42 37t42 37h240q42 0 42 -37t-42 -37h-240z" />
    <glyph glyph-name="Uogonek" unicode="&#x172;" horiz-adv-x="738" 
d="M370 -10q-145 0 -221.5 75.5t-76.5 223.5v359q0 65 64 65t64 -65v-358q0 -95 43.5 -142.5t126.5 -47.5q169 0 169 190v358q0 65 64 65q63 0 63 -65v-359q0 -148 -75 -223.5t-221 -75.5zM406 -195q-55 0 -86.5 28t-31.5 76q0 42 28 78t74 55l37 -42q-25 -10 -42.5 -30.5
t-17.5 -46.5q0 -25 16 -38t40 -13q15 0 30 4q24 7 34 -6t6 -30.5t-24 -25.5q-16 -6 -32.5 -7.5t-30.5 -1.5z" />
    <glyph glyph-name="Uring" unicode="&#x16e;" horiz-adv-x="738" 
d="M370 -10q-145 0 -221.5 75.5t-76.5 223.5v359q0 65 64 65t64 -65v-358q0 -95 43.5 -142.5t126.5 -47.5q169 0 169 190v358q0 65 64 65q63 0 63 -65v-359q0 -148 -75 -223.5t-221 -75.5zM370 755q-35 0 -64 16.5t-45.5 44.5t-16.5 62q0 52 36.5 87t89.5 35t89.5 -35
t36.5 -87q0 -34 -16.5 -62t-45 -44.5t-64.5 -16.5zM370 812q29 0 47 19t18 47t-18 46.5t-47 18.5q-28 0 -46.5 -18.5t-18.5 -46.5t18.5 -47t46.5 -19z" />
    <glyph glyph-name="Utilde" unicode="&#x168;" horiz-adv-x="738" 
d="M370 -10q-145 0 -221.5 75.5t-76.5 223.5v359q0 65 64 65t64 -65v-358q0 -95 43.5 -142.5t126.5 -47.5q169 0 169 190v358q0 65 64 65q63 0 63 -65v-359q0 -148 -75 -223.5t-221 -75.5zM181 769q-16 1 -25 11t-5 27q12 56 46.5 86.5t83.5 30.5q28 0 52 -10t46 -23
t42.5 -23t40.5 -10q26 0 41.5 13.5t20.5 33.5q8 28 35 26q16 -1 25 -11t5 -27q-12 -56 -45.5 -86.5t-83.5 -30.5q-28 0 -52.5 10t-46.5 23t-42.5 23t-40.5 10q-25 0 -41 -13.5t-21 -33.5q-8 -28 -35 -26z" />
    <glyph glyph-name="uni1E78" unicode="&#x1e78;" horiz-adv-x="738" 
d="M370 -10q-145 0 -221.5 75.5t-76.5 223.5v359q0 65 64 65t64 -65v-358q0 -95 43.5 -142.5t126.5 -47.5q169 0 169 190v358q0 65 64 65q63 0 63 -65v-359q0 -148 -75 -223.5t-221 -75.5zM409 894q-14 -16 -31.5 -14t-27 16.5t0.5 33.5l49 89q12 21 31 24t36 -7t22 -27.5
t-12 -36.5zM229 765q-14 1 -21.5 11t-3.5 26q10 37 36.5 56t63.5 19q27 0 49 -11t41.5 -22t38.5 -11q15 0 27 5.5t17 18.5q9 23 35 22q14 -1 22 -10.5t3 -26.5q-10 -37 -36.5 -56t-63.5 -19q-27 0 -49.5 11t-41.5 22t-38 11q-15 0 -27 -5.5t-17 -18.5q-9 -23 -35 -22z" />
    <glyph glyph-name="V" unicode="V" horiz-adv-x="713" 
d="M357 -8q-51 0 -73 50l-261 586q-16 38 1.5 61.5t51.5 23.5q29 0 43.5 -12.5t24.5 -37.5l215 -499l215 500q11 24 26 36.5t42 12.5q32 0 48.5 -24t-0.5 -61l-261 -586q-11 -25 -27.5 -37.5t-44.5 -12.5z" />
    <glyph glyph-name="W" unicode="W" horiz-adv-x="1113" 
d="M325 -8q-51 0 -70 54l-209 591q-11 32 4.5 54t52.5 22q27 0 42 -12.5t24 -39.5l160 -476l168 475q19 53 64 53q24 0 38 -13t24 -41l165 -481l165 483q9 26 24 39t41 13q32 0 47 -22t4 -54l-211 -592q-10 -27 -26 -40t-43 -13t-43 13t-26 41l-163 463l-164 -464
q-10 -27 -25.5 -40t-42.5 -13z" />
    <glyph glyph-name="Wacute" unicode="&#x1e82;" horiz-adv-x="1113" 
d="M325 -8q-51 0 -70 54l-209 591q-11 32 4.5 54t52.5 22q27 0 42 -12.5t24 -39.5l160 -476l168 475q19 53 64 53q24 0 38 -13t24 -41l165 -481l165 483q9 26 24 39t41 13q32 0 47 -22t4 -54l-211 -592q-10 -27 -26 -40t-43 -13t-43 13t-26 41l-163 463l-164 -464
q-10 -27 -25.5 -40t-42.5 -13zM608 771q-12 -13 -26.5 -13.5t-26 8t-15 21.5t5.5 27l78 115q14 21 34 22t36.5 -10.5t21 -29t-11.5 -35.5z" />
    <glyph glyph-name="Wcircumflex" unicode="&#x174;" horiz-adv-x="1113" 
d="M325 -8q-51 0 -70 54l-209 591q-11 32 4.5 54t52.5 22q27 0 42 -12.5t24 -39.5l160 -476l168 475q19 53 64 53q24 0 38 -13t24 -41l165 -481l165 483q9 26 24 39t41 13q32 0 47 -22t4 -54l-211 -592q-10 -27 -26 -40t-43 -13t-43 13t-26 41l-163 463l-164 -464
q-10 -27 -25.5 -40t-42.5 -13zM473 771q-16 -17 -36 -14t-29.5 18.5t3.5 34.5l73 101q27 40 73 40q45 0 74 -40l72 -101q14 -19 4.5 -34.5t-29 -18.5t-36.5 14l-85 98z" />
    <glyph glyph-name="Wdieresis" unicode="&#x1e84;" horiz-adv-x="1113" 
d="M325 -8q-51 0 -70 54l-209 591q-11 32 4.5 54t52.5 22q27 0 42 -12.5t24 -39.5l160 -476l168 475q19 53 64 53q24 0 38 -13t24 -41l165 -481l165 483q9 26 24 39t41 13q32 0 47 -22t4 -54l-211 -592q-10 -27 -26 -40t-43 -13t-43 13t-26 41l-163 463l-164 -464
q-10 -27 -25.5 -40t-42.5 -13zM652 786q-62 0 -62 62q0 61 62 61q61 0 61 -61q0 -62 -61 -62zM463 786q-29 0 -45.5 16t-16.5 46q0 29 16.5 45t45.5 16q62 0 62 -61q0 -62 -62 -62z" />
    <glyph glyph-name="Wgrave" unicode="&#x1e80;" horiz-adv-x="1113" 
d="M325 -8q-51 0 -70 54l-209 591q-11 32 4.5 54t52.5 22q27 0 42 -12.5t24 -39.5l160 -476l168 475q19 53 64 53q24 0 38 -13t24 -41l165 -481l165 483q9 26 24 39t41 13q32 0 47 -22t4 -54l-211 -592q-10 -27 -26 -40t-43 -13t-43 13t-26 41l-163 463l-164 -464
q-10 -27 -25.5 -40t-42.5 -13zM507 771l-96 105q-16 18 -11.5 35.5t21 29t36.5 10.5t34 -22l78 -115q9 -14 5.5 -27t-15 -21.5t-26 -8t-26.5 13.5z" />
    <glyph glyph-name="X" unicode="X" horiz-adv-x="672" 
d="M101 -8q-25 0 -41 13.5t-18.5 34t13.5 41.5l208 278l-197 264q-16 22 -14 42.5t18 34t40 13.5q37 0 67 -41l159 -220l159 220q30 41 68 41q25 0 41 -13t18 -33.5t-15 -43.5l-197 -264l207 -278q16 -21 14 -41.5t-18 -34t-42 -13.5q-36 0 -67 42l-168 230l-167 -230
q-31 -42 -68 -42z" />
    <glyph glyph-name="Y" unicode="Y" horiz-adv-x="618" 
d="M309 -8q-64 0 -64 67v265l-214 301q-13 18 -11.5 38.5t16.5 35t42 14.5q39 0 68 -41l165 -234l166 234q16 22 31 31.5t37 9.5q39 0 51.5 -28.5t-10.5 -60.5l-213 -301v-264q0 -67 -64 -67z" />
    <glyph glyph-name="Yacute" unicode="&#xdd;" horiz-adv-x="618" 
d="M309 -8q-64 0 -64 67v265l-214 301q-13 18 -11.5 38.5t16.5 35t42 14.5q39 0 68 -41l165 -234l166 234q16 22 31 31.5t37 9.5q39 0 51.5 -28.5t-10.5 -60.5l-213 -301v-264q0 -67 -64 -67zM360 771q-12 -13 -26.5 -13.5t-26 8t-15 21.5t5.5 27l78 115q14 21 34 22
t36.5 -10.5t21 -29t-11.5 -35.5z" />
    <glyph glyph-name="Ycircumflex" unicode="&#x176;" horiz-adv-x="618" 
d="M309 -8q-64 0 -64 67v265l-214 301q-13 18 -11.5 38.5t16.5 35t42 14.5q39 0 68 -41l165 -234l166 234q16 22 31 31.5t37 9.5q39 0 51.5 -28.5t-10.5 -60.5l-213 -301v-264q0 -67 -64 -67zM225 771q-16 -17 -36 -14t-29.5 18.5t3.5 34.5l73 101q27 40 73 40q45 0 74 -40
l72 -101q14 -19 4.5 -34.5t-29 -18.5t-36.5 14l-85 98z" />
    <glyph glyph-name="Ydieresis" unicode="&#x178;" horiz-adv-x="618" 
d="M309 -8q-64 0 -64 67v265l-214 301q-13 18 -11.5 38.5t16.5 35t42 14.5q39 0 68 -41l165 -234l166 234q16 22 31 31.5t37 9.5q39 0 51.5 -28.5t-10.5 -60.5l-213 -301v-264q0 -67 -64 -67zM404 786q-62 0 -62 62q0 61 62 61q61 0 61 -61q0 -62 -61 -62zM215 786
q-29 0 -45.5 16t-16.5 46q0 29 16.5 45t45.5 16q62 0 62 -61q0 -62 -62 -62z" />
    <glyph glyph-name="uni1E8E" unicode="&#x1e8e;" horiz-adv-x="618" 
d="M309 -8q-64 0 -64 67v265l-214 301q-13 18 -11.5 38.5t16.5 35t42 14.5q39 0 68 -41l165 -234l166 234q16 22 31 31.5t37 9.5q39 0 51.5 -28.5t-10.5 -60.5l-213 -301v-264q0 -67 -64 -67zM309 789q-65 0 -65 63q0 62 65 62t65 -62q0 -63 -65 -63z" />
    <glyph glyph-name="uni1EF4" unicode="&#x1ef4;" horiz-adv-x="618" 
d="M309 -8q-64 0 -64 67v265l-214 301q-13 18 -11.5 38.5t16.5 35t42 14.5q39 0 68 -41l165 -234l166 234q16 22 31 31.5t37 9.5q39 0 51.5 -28.5t-10.5 -60.5l-213 -301v-264q0 -67 -64 -67zM310 -209q-65 0 -65 63q0 62 65 62q66 0 66 -62q0 -63 -66 -63z" />
    <glyph glyph-name="Ygrave" unicode="&#x1ef2;" horiz-adv-x="618" 
d="M309 -8q-64 0 -64 67v265l-214 301q-13 18 -11.5 38.5t16.5 35t42 14.5q39 0 68 -41l165 -234l166 234q16 22 31 31.5t37 9.5q39 0 51.5 -28.5t-10.5 -60.5l-213 -301v-264q0 -67 -64 -67zM259 771l-96 105q-16 18 -11.5 35.5t21 29t36.5 10.5t34 -22l78 -115
q9 -14 5.5 -27t-15 -21.5t-26 -8t-26.5 13.5z" />
    <glyph glyph-name="uni01B3" unicode="&#x1b3;" horiz-adv-x="619" 
d="M309 -8q-64 0 -64 68v264l-214 301q-13 18 -11 38.5t17 35t42 14.5q26 0 39.5 -10.5t32.5 -37.5l160 -228l127 184q32 47 72.5 70t97.5 23q40 0 62.5 -10t22.5 -43q0 -21 -10.5 -31.5t-25.5 -9.5q-7 1 -13.5 1h-12.5q-22 0 -44.5 -11t-40.5 -37l-173 -250v-263
q0 -68 -64 -68z" />
    <glyph glyph-name="uni1EF6" unicode="&#x1ef6;" horiz-adv-x="618" 
d="M309 -8q-64 0 -64 67v265l-214 301q-13 18 -11.5 38.5t16.5 35t42 14.5q39 0 68 -41l165 -234l166 234q16 22 31 31.5t37 9.5q39 0 51.5 -28.5t-10.5 -60.5l-213 -301v-264q0 -67 -64 -67zM309 757q-38 0 -38 26q0 24 14 36.5t28 22.5t14 23q0 20 -40 20q-7 0 -16.5 -1
t-18.5 -3q-34 -8 -42 15q-4 12 0.5 22.5t20.5 15.5q17 6 39.5 9t46.5 3q49 0 77 -17t28 -46q0 -22 -11 -35t-26 -22.5t-26 -20t-11 -28.5q0 -20 -39 -20z" />
    <glyph glyph-name="uni0232" unicode="&#x232;" horiz-adv-x="618" 
d="M309 -8q-64 0 -64 67v265l-214 301q-13 18 -11.5 38.5t16.5 35t42 14.5q39 0 68 -41l165 -234l166 234q16 22 31 31.5t37 9.5q39 0 51.5 -28.5t-10.5 -60.5l-213 -301v-264q0 -67 -64 -67zM171 806q-39 0 -39 37t39 37h277q39 0 39 -37t-39 -37h-277z" />
    <glyph glyph-name="uni1EF8" unicode="&#x1ef8;" horiz-adv-x="618" 
d="M309 -8q-64 0 -64 67v265l-214 301q-13 18 -11.5 38.5t16.5 35t42 14.5q39 0 68 -41l165 -234l166 234q16 22 31 31.5t37 9.5q39 0 51.5 -28.5t-10.5 -60.5l-213 -301v-264q0 -67 -64 -67zM120 769q-16 1 -25 11t-5 27q12 56 46.5 86.5t83.5 30.5q28 0 52 -10t46 -23
t42.5 -23t40.5 -10q26 0 41.5 13.5t20.5 33.5q8 28 35 26q16 -1 25 -11t5 -27q-12 -56 -45.5 -86.5t-83.5 -30.5q-28 0 -52.5 10t-46.5 23t-42.5 23t-40.5 10q-25 0 -41 -13.5t-21 -33.5q-8 -28 -35 -26z" />
    <glyph glyph-name="Z" unicode="Z" horiz-adv-x="605" 
d="M106 0q-33 0 -49.5 17.5t-14 45.5t24.5 58l352 477h-323q-57 0 -57 54q0 53 57 53h414q33 0 49.5 -17.5t14.5 -45t-25 -58.5l-352 -477h338q57 0 57 -53q0 -54 -57 -54h-429z" />
    <glyph glyph-name="Zacute" unicode="&#x179;" horiz-adv-x="605" 
d="M106 0q-33 0 -49.5 17.5t-14 45.5t24.5 58l352 477h-323q-57 0 -57 54q0 53 57 53h414q33 0 49.5 -17.5t14.5 -45t-25 -58.5l-352 -477h338q57 0 57 -53q0 -54 -57 -54h-429zM364 771q-12 -13 -26.5 -13.5t-26 8t-15 21.5t5.5 27l78 115q14 21 34 22t36.5 -10.5t21 -29
t-11.5 -35.5z" />
    <glyph glyph-name="Zcaron" unicode="&#x17d;" horiz-adv-x="605" 
d="M106 0q-33 0 -49.5 17.5t-14 45.5t24.5 58l352 477h-323q-57 0 -57 54q0 53 57 53h414q33 0 49.5 -17.5t14.5 -45t-25 -58.5l-352 -477h338q57 0 57 -53q0 -54 -57 -54h-429zM313 754q-46 0 -73 39l-73 102q-10 14 -6.5 27t15.5 20.5t26.5 6t26.5 -15.5l84 -98l85 98
q16 19 35.5 16t29.5 -18.5t-4 -35.5l-72 -102q-27 -39 -74 -39z" />
    <glyph glyph-name="Zdotaccent" unicode="&#x17b;" horiz-adv-x="605" 
d="M106 0q-33 0 -49.5 17.5t-14 45.5t24.5 58l352 477h-323q-57 0 -57 54q0 53 57 53h414q33 0 49.5 -17.5t14.5 -45t-25 -58.5l-352 -477h338q57 0 57 -53q0 -54 -57 -54h-429zM313 789q-65 0 -65 63q0 62 65 62t65 -62q0 -63 -65 -63z" />
    <glyph glyph-name="uni1E92" unicode="&#x1e92;" horiz-adv-x="605" 
d="M106 0q-33 0 -49.5 17.5t-14 45.5t24.5 58l352 477h-323q-57 0 -57 54q0 53 57 53h414q33 0 49.5 -17.5t14.5 -45t-25 -58.5l-352 -477h338q57 0 57 -53q0 -54 -57 -54h-429zM314 -209q-65 0 -65 63q0 62 65 62q66 0 66 -62q0 -63 -66 -63z" />
    <glyph glyph-name="Iacute_J.loclNLD" horiz-adv-x="636" 
d="M141 -8q-64 0 -64 66v589q0 66 64 66t64 -66v-589q0 -66 -64 -66zM192 771q-12 -13 -26.5 -13.5t-26 8t-15 21.5t5.5 27l78 115q14 21 34 22t36.5 -10.5t21 -29t-11.5 -35.5zM328 -7q-28 -1 -44 15t-16 41q0 19 11.5 33.5t33.5 15.5l30 2q89 6 89 98v450q0 65 64 65
t64 -65v-449q0 -94 -50 -146t-148 -58zM546 771q-12 -13 -26.5 -13.5t-26 8t-15 21.5t5.5 27l78 115q14 21 34 22t36.5 -10.5t21 -29t-11.5 -35.5z" />
    <glyph glyph-name="a" unicode="a" horiz-adv-x="547" 
d="M226 -10q-53 0 -94.5 20.5t-65 55.5t-23.5 79q0 54 28 85.5t91 45.5t169 14h35v21q0 50 -22 72t-74 22q-29 0 -62.5 -7t-70.5 -24q-24 -11 -40 -2.5t-21.5 27t2 37.5t30.5 28q46 19 88.5 27t77.5 8q107 0 159 -49.5t52 -153.5v-240q0 -64 -58 -64q-59 0 -59 64v22
q-17 -41 -54 -64.5t-88 -23.5zM252 76q49 0 81.5 34t32.5 86v22h-34q-94 0 -130.5 -14.5t-36.5 -52.5q0 -33 23 -54t64 -21z" />
    <glyph glyph-name="aacute" unicode="&#xe1;" horiz-adv-x="547" 
d="M226 -10q-53 0 -94.5 20.5t-65 55.5t-23.5 79q0 54 28 85.5t91 45.5t169 14h35v21q0 50 -22 72t-74 22q-29 0 -62.5 -7t-70.5 -24q-24 -11 -40 -2.5t-21.5 27t2 37.5t30.5 28q46 19 88.5 27t77.5 8q107 0 159 -49.5t52 -153.5v-240q0 -64 -58 -64q-59 0 -59 64v22
q-17 -41 -54 -64.5t-88 -23.5zM252 76q49 0 81.5 34t32.5 86v22h-34q-94 0 -130.5 -14.5t-36.5 -52.5q0 -33 23 -54t64 -21zM326 560q-10 -14 -24 -16t-27 5t-18.5 20t2.5 29l76 149q11 23 31 26.5t38.5 -6.5t25.5 -28.5t-7 -38.5z" />
    <glyph glyph-name="abreve" unicode="&#x103;" horiz-adv-x="547" 
d="M226 -10q-53 0 -94.5 20.5t-65 55.5t-23.5 79q0 54 28 85.5t91 45.5t169 14h35v21q0 50 -22 72t-74 22q-29 0 -62.5 -7t-70.5 -24q-24 -11 -40 -2.5t-21.5 27t2 37.5t30.5 28q46 19 88.5 27t77.5 8q107 0 159 -49.5t52 -153.5v-240q0 -64 -58 -64q-59 0 -59 64v22
q-17 -41 -54 -64.5t-88 -23.5zM252 76q49 0 81.5 34t32.5 86v22h-34q-94 0 -130.5 -14.5t-36.5 -52.5q0 -33 23 -54t64 -21zM279 551q-70 0 -111 44.5t-52 111.5q-3 20 6.5 32.5t25.5 13.5q35 2 41 -36q8 -45 32 -67.5t58 -22.5t58.5 22.5t31.5 67.5q6 38 41 36
q17 -1 26 -13.5t6 -32.5q-10 -67 -51 -111.5t-112 -44.5z" />
    <glyph glyph-name="uni1EAF" unicode="&#x1eaf;" horiz-adv-x="547" 
d="M226 -10q-53 0 -94.5 20.5t-65 55.5t-23.5 79q0 54 28 85.5t91 45.5t169 14h35v21q0 50 -22 72t-74 22q-29 0 -62.5 -7t-70.5 -24q-24 -11 -40 -2.5t-21.5 27t2 37.5t30.5 28q46 19 88.5 27t77.5 8q107 0 159 -49.5t52 -153.5v-240q0 -64 -58 -64q-59 0 -59 64v22
q-17 -41 -54 -64.5t-88 -23.5zM252 76q49 0 81.5 34t32.5 86v22h-34q-94 0 -130.5 -14.5t-36.5 -52.5q0 -33 23 -54t64 -21zM312 678q-14 -16 -32 -14t-27.5 16.5t0.5 32.5l51 92q12 21 31 23.5t35.5 -8t21.5 -28t-12 -36.5zM279 551q-65 0 -108 33t-57 87q-4 19 2.5 30.5
t20.5 12.5q14 2 23.5 -3t14.5 -22q10 -30 36 -49t68 -19t68 19t36 49q5 17 14.5 22t23.5 3q14 -1 21 -12.5t2 -30.5q-13 -54 -56.5 -87t-108.5 -33z" />
    <glyph glyph-name="uni1EB7" unicode="&#x1eb7;" horiz-adv-x="547" 
d="M226 -10q-53 0 -94.5 20.5t-65 55.5t-23.5 79q0 54 28 85.5t91 45.5t169 14h35v21q0 50 -22 72t-74 22q-29 0 -62.5 -7t-70.5 -24q-24 -11 -40 -2.5t-21.5 27t2 37.5t30.5 28q46 19 88.5 27t77.5 8q107 0 159 -49.5t52 -153.5v-240q0 -64 -58 -64q-59 0 -59 64v22
q-17 -41 -54 -64.5t-88 -23.5zM252 76q49 0 81.5 34t32.5 86v22h-34q-94 0 -130.5 -14.5t-36.5 -52.5q0 -33 23 -54t64 -21zM275 -209q-65 0 -65 63q0 62 65 62q66 0 66 -62q0 -63 -66 -63zM279 551q-70 0 -111 44.5t-52 111.5q-3 20 6.5 32.5t25.5 13.5q35 2 41 -36
q8 -45 32 -67.5t58 -22.5t58.5 22.5t31.5 67.5q6 38 41 36q17 -1 26 -13.5t6 -32.5q-10 -67 -51 -111.5t-112 -44.5z" />
    <glyph glyph-name="uni1EB1" unicode="&#x1eb1;" horiz-adv-x="547" 
d="M226 -10q-53 0 -94.5 20.5t-65 55.5t-23.5 79q0 54 28 85.5t91 45.5t169 14h35v21q0 50 -22 72t-74 22q-29 0 -62.5 -7t-70.5 -24q-24 -11 -40 -2.5t-21.5 27t2 37.5t30.5 28q46 19 88.5 27t77.5 8q107 0 159 -49.5t52 -153.5v-240q0 -64 -58 -64q-59 0 -59 64v22
q-17 -41 -54 -64.5t-88 -23.5zM252 76q49 0 81.5 34t32.5 86v22h-34q-94 0 -130.5 -14.5t-36.5 -52.5q0 -33 23 -54t64 -21zM246 678l-68 78q-16 19 -11.5 36.5t21 28t35.5 8t31 -23.5l51 -92q11 -18 1 -32.5t-27.5 -16.5t-32.5 14zM279 551q-65 0 -108.5 33t-56.5 87
q-4 19 2.5 30.5t20.5 12.5q14 2 23.5 -3t14.5 -22q10 -30 36 -49t68 -19t68 19t36 49q5 17 14.5 22t23.5 3q14 -1 21 -12.5t2 -30.5q-13 -54 -56.5 -87t-108.5 -33z" />
    <glyph glyph-name="uni1EB3" unicode="&#x1eb3;" horiz-adv-x="547" 
d="M226 -10q-53 0 -94.5 20.5t-65 55.5t-23.5 79q0 54 28 85.5t91 45.5t169 14h35v21q0 50 -22 72t-74 22q-29 0 -62.5 -7t-70.5 -24q-24 -11 -40 -2.5t-21.5 27t2 37.5t30.5 28q46 19 88.5 27t77.5 8q107 0 159 -49.5t52 -153.5v-240q0 -64 -58 -64q-59 0 -59 64v22
q-17 -41 -54 -64.5t-88 -23.5zM252 76q49 0 81.5 34t32.5 86v22h-34q-94 0 -130.5 -14.5t-36.5 -52.5q0 -33 23 -54t64 -21zM304 671q-13 -8 -27.5 -4t-20 14t7.5 20q31 23 31 45q0 23 -36 23q-7 0 -15.5 -1t-17.5 -3q-28 -7 -36 15q-8 23 20 33q18 6 36.5 8t38.5 2
q44 0 69 -14t25 -43t-23.5 -53.5t-51.5 -41.5zM279 551q-65 0 -108.5 33t-56.5 87q-4 19 2.5 30.5t20.5 12.5q14 2 23.5 -3t14.5 -22q10 -30 36 -49t68 -19t68 19t36 49q5 17 14.5 22t23.5 3q14 -1 21 -12.5t2 -30.5q-13 -54 -56.5 -87t-108.5 -33z" />
    <glyph glyph-name="uni1EB5" unicode="&#x1eb5;" horiz-adv-x="547" 
d="M226 -10q-53 0 -94.5 20.5t-65 55.5t-23.5 79q0 54 28 85.5t91 45.5t169 14h35v21q0 50 -22 72t-74 22q-29 0 -62.5 -7t-70.5 -24q-24 -11 -40 -2.5t-21.5 27t2 37.5t30.5 28q46 19 88.5 27t77.5 8q107 0 159 -49.5t52 -153.5v-240q0 -64 -58 -64q-59 0 -59 64v22
q-17 -41 -54 -64.5t-88 -23.5zM252 76q49 0 81.5 34t32.5 86v22h-34q-94 0 -130.5 -14.5t-36.5 -52.5q0 -33 23 -54t64 -21zM138 710q-14 1 -21.5 11t-3.5 26q10 37 36.5 56t63.5 19q27 0 49 -11t41.5 -22t38.5 -11q15 0 27 5.5t17 18.5q9 23 35 22q14 -1 22 -10.5t3 -26.5
q-10 -37 -36.5 -56t-63.5 -19q-27 0 -49.5 11t-41.5 22t-38 11q-15 0 -27 -5.5t-17 -18.5q-9 -23 -35 -22zM279 551q-58 0 -99.5 23.5t-58.5 58.5q-8 17 -3 28.5t19 15.5q15 5 24 2t18 -16q13 -19 38 -30.5t62 -11.5q38 0 62.5 11.5t37.5 30.5q9 13 18 16t24 -2
q14 -4 19 -15.5t-3 -28.5q-17 -35 -58 -58.5t-100 -23.5z" />
    <glyph glyph-name="uni01CE" unicode="&#x1ce;" horiz-adv-x="547" 
d="M226 -10q-53 0 -94.5 20.5t-65 55.5t-23.5 79q0 54 28 85.5t91 45.5t169 14h35v21q0 50 -22 72t-74 22q-29 0 -62.5 -7t-70.5 -24q-24 -11 -40 -2.5t-21.5 27t2 37.5t30.5 28q46 19 88.5 27t77.5 8q107 0 159 -49.5t52 -153.5v-240q0 -64 -58 -64q-59 0 -59 64v22
q-17 -41 -54 -64.5t-88 -23.5zM252 76q49 0 81.5 34t32.5 86v22h-34q-94 0 -130.5 -14.5t-36.5 -52.5q0 -33 23 -54t64 -21zM279 536q-45 0 -70 47l-72 131q-9 16 -4 29t17 19.5t25.5 4.5t22.5 -16l81 -126l81 126q9 14 22.5 16t25.5 -4.5t17 -19.5t-4 -29l-71 -131
q-25 -47 -71 -47z" />
    <glyph glyph-name="acircumflex" unicode="&#xe2;" horiz-adv-x="547" 
d="M226 -10q-53 0 -94.5 20.5t-65 55.5t-23.5 79q0 54 28 85.5t91 45.5t169 14h35v21q0 50 -22 72t-74 22q-29 0 -62.5 -7t-70.5 -24q-24 -11 -40 -2.5t-21.5 27t2 37.5t30.5 28q46 19 88.5 27t77.5 8q107 0 159 -49.5t52 -153.5v-240q0 -64 -58 -64q-59 0 -59 64v22
q-17 -41 -54 -64.5t-88 -23.5zM252 76q49 0 81.5 34t32.5 86v22h-34q-94 0 -130.5 -14.5t-36.5 -52.5q0 -33 23 -54t64 -21zM421 597q9 -16 4 -29t-17 -19.5t-25.5 -4.5t-22.5 16l-81 126l-81 -126q-9 -14 -22.5 -16t-25.5 4.5t-17 19.5t4 29l72 132q24 45 70 45
q47 0 71 -45z" />
    <glyph glyph-name="uni1EA5" unicode="&#x1ea5;" horiz-adv-x="547" 
d="M226 -10q-53 0 -94.5 20.5t-65 55.5t-23.5 79q0 54 28 85.5t91 45.5t169 14h35v21q0 50 -22 72t-74 22q-29 0 -62.5 -7t-70.5 -24q-24 -11 -40 -2.5t-21.5 27t2 37.5t30.5 28q46 19 88.5 27t77.5 8q107 0 159 -49.5t52 -153.5v-240q0 -64 -58 -64q-59 0 -59 64v22
q-17 -41 -54 -64.5t-88 -23.5zM252 76q49 0 81.5 34t32.5 86v22h-34q-94 0 -130.5 -14.5t-36.5 -52.5q0 -33 23 -54t64 -21zM454 654q-12 -15 -28 -13.5t-24.5 15.5t2.5 33l62 110q11 20 28 22.5t31.5 -6t19 -24.5t-9.5 -34zM198 558q-16 -18 -34 -15.5t-26.5 18t4.5 34.5
l65 97q15 22 32.5 30.5t39.5 8.5q23 0 40.5 -8.5t31.5 -30.5l65 -97q13 -19 5 -34.5t-25.5 -18t-34.5 15.5l-82 91z" />
    <glyph glyph-name="uni1EAD" unicode="&#x1ead;" horiz-adv-x="547" 
d="M226 -10q-53 0 -94.5 20.5t-65 55.5t-23.5 79q0 54 28 85.5t91 45.5t169 14h35v21q0 50 -22 72t-74 22q-29 0 -62.5 -7t-70.5 -24q-24 -11 -40 -2.5t-21.5 27t2 37.5t30.5 28q46 19 88.5 27t77.5 8q107 0 159 -49.5t52 -153.5v-240q0 -64 -58 -64q-59 0 -59 64v22
q-17 -41 -54 -64.5t-88 -23.5zM252 76q49 0 81.5 34t32.5 86v22h-34q-94 0 -130.5 -14.5t-36.5 -52.5q0 -33 23 -54t64 -21zM275 -209q-65 0 -65 63q0 62 65 62q66 0 66 -62q0 -63 -66 -63zM421 597q9 -16 4 -29t-17 -19.5t-25.5 -4.5t-22.5 16l-81 126l-81 -126
q-9 -14 -22.5 -16t-25.5 4.5t-17 19.5t4 29l72 132q24 45 70 45q47 0 71 -45z" />
    <glyph glyph-name="uni1EA7" unicode="&#x1ea7;" horiz-adv-x="547" 
d="M226 -10q-53 0 -94.5 20.5t-65 55.5t-23.5 79q0 54 28 85.5t91 45.5t169 14h35v21q0 50 -22 72t-74 22q-29 0 -62.5 -7t-70.5 -24q-24 -11 -40 -2.5t-21.5 27t2 37.5t30.5 28q46 19 88.5 27t77.5 8q107 0 159 -49.5t52 -153.5v-240q0 -64 -58 -64q-59 0 -59 64v22
q-17 -41 -54 -64.5t-88 -23.5zM252 76q49 0 81.5 34t32.5 86v22h-34q-94 0 -130.5 -14.5t-36.5 -52.5q0 -33 23 -54t64 -21zM433 654l-81 103q-14 18 -9.5 34t19 24.5t31.5 6t28 -22.5l62 -110q11 -19 2.5 -33t-24.5 -15.5t-28 13.5zM198 558q-16 -18 -34 -15.5t-26.5 18
t4.5 34.5l65 97q15 22 32.5 30.5t39.5 8.5q23 0 40.5 -8.5t31.5 -30.5l65 -97q13 -19 5 -34.5t-25.5 -18t-34.5 15.5l-82 91z" />
    <glyph glyph-name="uni1EA9" unicode="&#x1ea9;" horiz-adv-x="547" 
d="M226 -10q-53 0 -94.5 20.5t-65 55.5t-23.5 79q0 54 28 85.5t91 45.5t169 14h35v21q0 50 -22 72t-74 22q-29 0 -62.5 -7t-70.5 -24q-24 -11 -40 -2.5t-21.5 27t2 37.5t30.5 28q46 19 88.5 27t77.5 8q107 0 159 -49.5t52 -153.5v-240q0 -64 -58 -64q-59 0 -59 64v22
q-17 -41 -54 -64.5t-88 -23.5zM252 76q49 0 81.5 34t32.5 86v22h-34q-94 0 -130.5 -14.5t-36.5 -52.5q0 -33 23 -54t64 -21zM440 654q-13 -7 -26 -2.5t-16.5 15.5t8.5 21q16 13 25.5 24t9.5 24q0 24 -37 24q-7 0 -15.5 -1t-17.5 -3q-28 -7 -36 15q-8 25 21 34q17 5 35.5 7
t38.5 2q44 0 68.5 -14t24.5 -45q0 -20 -13 -39.5t-32 -35t-38 -26.5zM198 558q-16 -18 -34 -15.5t-26.5 18t4.5 34.5l65 97q15 22 32.5 30.5t39.5 8.5q23 0 40.5 -8.5t31.5 -30.5l65 -97q13 -19 5 -34.5t-25.5 -18t-34.5 15.5l-82 91z" />
    <glyph glyph-name="uni1EAB" unicode="&#x1eab;" horiz-adv-x="547" 
d="M226 -10q-53 0 -94.5 20.5t-65 55.5t-23.5 79q0 54 28 85.5t91 45.5t169 14h35v21q0 50 -22 72t-74 22q-29 0 -62.5 -7t-70.5 -24q-24 -11 -40 -2.5t-21.5 27t2 37.5t30.5 28q46 19 88.5 27t77.5 8q107 0 159 -49.5t52 -153.5v-240q0 -64 -58 -64q-59 0 -59 64v22
q-17 -41 -54 -64.5t-88 -23.5zM252 76q49 0 81.5 34t32.5 86v22h-34q-94 0 -130.5 -14.5t-36.5 -52.5q0 -33 23 -54t64 -21zM138 710q-14 1 -21.5 11t-3.5 26q10 37 36.5 56t63.5 19q27 0 49 -11t41.5 -22t38.5 -11q15 0 27 5.5t17 18.5q9 23 35 22q14 -1 22 -10.5t3 -26.5
q-10 -37 -36.5 -56t-63.5 -19q-27 0 -49.5 11t-41.5 22t-38 11q-15 0 -27 -5.5t-17 -18.5q-9 -23 -35 -22zM189 552q-16 -13 -31.5 -8.5t-21 18t6.5 27.5l59 70q17 20 36 27.5t41 7.5q23 0 42.5 -7.5t35.5 -27.5l58 -70q12 -14 6.5 -28t-20.5 -18.5t-32 9.5l-90 74z" />
    <glyph glyph-name="uni0201" unicode="&#x201;" horiz-adv-x="547" 
d="M226 -10q-53 0 -94.5 20.5t-65 55.5t-23.5 79q0 54 28 85.5t91 45.5t169 14h35v21q0 50 -22 72t-74 22q-29 0 -62.5 -7t-70.5 -24q-24 -11 -40 -2.5t-21.5 27t2 37.5t30.5 28q46 19 88.5 27t77.5 8q107 0 159 -49.5t52 -153.5v-240q0 -64 -58 -64q-59 0 -59 64v22
q-17 -41 -54 -64.5t-88 -23.5zM252 76q49 0 81.5 34t32.5 86v22h-34q-94 0 -130.5 -14.5t-36.5 -52.5q0 -33 23 -54t64 -21zM170 564l-65 148q-10 24 -0.5 39.5t29 20.5t37.5 -3t24 -33l38 -153q5 -20 -8 -31t-30 -8.5t-25 20.5zM318 564l-65 148q-10 24 0 39.5t29 20.5
t37.5 -3t24.5 -33l37 -153q5 -20 -8 -31t-30 -8.5t-25 20.5z" />
    <glyph glyph-name="adieresis" unicode="&#xe4;" horiz-adv-x="547" 
d="M226 -10q-53 0 -94.5 20.5t-65 55.5t-23.5 79q0 54 28 85.5t91 45.5t169 14h35v21q0 50 -22 72t-74 22q-29 0 -62.5 -7t-70.5 -24q-24 -11 -40 -2.5t-21.5 27t2 37.5t30.5 28q46 19 88.5 27t77.5 8q107 0 159 -49.5t52 -153.5v-240q0 -64 -58 -64q-59 0 -59 64v22
q-17 -41 -54 -64.5t-88 -23.5zM252 76q49 0 81.5 34t32.5 86v22h-34q-94 0 -130.5 -14.5t-36.5 -52.5q0 -33 23 -54t64 -21zM374 593q-62 0 -62 62q0 61 62 61q61 0 61 -61q0 -62 -61 -62zM185 593q-29 0 -45.5 16t-16.5 46q0 29 16.5 45t45.5 16q62 0 62 -61q0 -62 -62 -62
z" />
    <glyph glyph-name="uni0227" unicode="&#x227;" horiz-adv-x="547" 
d="M226 -10q-53 0 -94.5 20.5t-65 55.5t-23.5 79q0 54 28 85.5t91 45.5t169 14h35v21q0 50 -22 72t-74 22q-29 0 -62.5 -7t-70.5 -24q-24 -11 -40 -2.5t-21.5 27t2 37.5t30.5 28q46 19 88.5 27t77.5 8q107 0 159 -49.5t52 -153.5v-240q0 -64 -58 -64q-59 0 -59 64v22
q-17 -41 -54 -64.5t-88 -23.5zM252 76q49 0 81.5 34t32.5 86v22h-34q-94 0 -130.5 -14.5t-36.5 -52.5q0 -33 23 -54t64 -21zM279 593q-65 0 -65 63q0 62 65 62q66 0 66 -62q0 -63 -66 -63z" />
    <glyph glyph-name="uni1EA1" unicode="&#x1ea1;" horiz-adv-x="547" 
d="M226 -10q-53 0 -94.5 20.5t-65 55.5t-23.5 79q0 54 28 85.5t91 45.5t169 14h35v21q0 50 -22 72t-74 22q-29 0 -62.5 -7t-70.5 -24q-24 -11 -40 -2.5t-21.5 27t2 37.5t30.5 28q46 19 88.5 27t77.5 8q107 0 159 -49.5t52 -153.5v-240q0 -64 -58 -64q-59 0 -59 64v22
q-17 -41 -54 -64.5t-88 -23.5zM252 76q49 0 81.5 34t32.5 86v22h-34q-94 0 -130.5 -14.5t-36.5 -52.5q0 -33 23 -54t64 -21zM275 -209q-65 0 -65 63q0 62 65 62q66 0 66 -62q0 -63 -66 -63z" />
    <glyph glyph-name="agrave" unicode="&#xe0;" horiz-adv-x="547" 
d="M226 -10q-53 0 -94.5 20.5t-65 55.5t-23.5 79q0 54 28 85.5t91 45.5t169 14h35v21q0 50 -22 72t-74 22q-29 0 -62.5 -7t-70.5 -24q-24 -11 -40 -2.5t-21.5 27t2 37.5t30.5 28q46 19 88.5 27t77.5 8q107 0 159 -49.5t52 -153.5v-240q0 -64 -58 -64q-59 0 -59 64v22
q-17 -41 -54 -64.5t-88 -23.5zM252 76q49 0 81.5 34t32.5 86v22h-34q-94 0 -130.5 -14.5t-36.5 -52.5q0 -33 23 -54t64 -21zM233 560l-97 140q-14 21 -7 39t25 28t38 6.5t32 -26.5l75 -149q8 -16 3 -29t-18 -20t-27 -5t-24 16z" />
    <glyph glyph-name="uni1EA3" unicode="&#x1ea3;" horiz-adv-x="547" 
d="M226 -10q-53 0 -94.5 20.5t-65 55.5t-23.5 79q0 54 28 85.5t91 45.5t169 14h35v21q0 50 -22 72t-74 22q-29 0 -62.5 -7t-70.5 -24q-24 -11 -40 -2.5t-21.5 27t2 37.5t30.5 28q46 19 88.5 27t77.5 8q107 0 159 -49.5t52 -153.5v-240q0 -64 -58 -64q-59 0 -59 64v22
q-17 -41 -54 -64.5t-88 -23.5zM252 76q49 0 81.5 34t32.5 86v22h-34q-94 0 -130.5 -14.5t-36.5 -52.5q0 -33 23 -54t64 -21zM279 546q-38 0 -38 27q0 22 8.5 36.5t19.5 25t19.5 20t8.5 22.5q0 25 -40 25q-8 0 -17 -1t-19 -4q-17 -5 -26.5 -2.5t-14.5 15.5q-11 29 21 42
q18 7 39.5 10t44.5 3q50 0 78.5 -18.5t28.5 -53.5q0 -25 -11.5 -40.5t-26 -26.5t-26 -23.5t-11.5 -31.5q0 -25 -38 -25z" />
    <glyph glyph-name="uni0203" unicode="&#x203;" horiz-adv-x="547" 
d="M226 -10q-53 0 -94.5 20.5t-65 55.5t-23.5 79q0 54 28 85.5t91 45.5t169 14h35v21q0 50 -22 72t-74 22q-29 0 -62.5 -7t-70.5 -24q-24 -11 -40 -2.5t-21.5 27t2 37.5t30.5 28q46 19 88.5 27t77.5 8q107 0 159 -49.5t52 -153.5v-240q0 -64 -58 -64q-59 0 -59 64v22
q-17 -41 -54 -64.5t-88 -23.5zM252 76q49 0 81.5 34t32.5 86v22h-34q-94 0 -130.5 -14.5t-36.5 -52.5q0 -33 23 -54t64 -21zM148 549q-16 1 -25.5 13.5t-6.5 32.5q10 67 51.5 111.5t111.5 44.5q71 0 112 -44.5t51 -111.5q3 -20 -6 -32.5t-26 -13.5q-35 -2 -41 36
q-7 45 -31.5 67.5t-58.5 22.5t-58 -22.5t-32 -67.5q-6 -38 -41 -36z" />
    <glyph glyph-name="amacron" unicode="&#x101;" horiz-adv-x="547" 
d="M226 -10q-53 0 -94.5 20.5t-65 55.5t-23.5 79q0 54 28 85.5t91 45.5t169 14h35v21q0 50 -22 72t-74 22q-29 0 -62.5 -7t-70.5 -24q-24 -11 -40 -2.5t-21.5 27t2 37.5t30.5 28q46 19 88.5 27t77.5 8q107 0 159 -49.5t52 -153.5v-240q0 -64 -58 -64q-59 0 -59 64v22
q-17 -41 -54 -64.5t-88 -23.5zM252 76q49 0 81.5 34t32.5 86v22h-34q-94 0 -130.5 -14.5t-36.5 -52.5q0 -33 23 -54t64 -21zM156 616q-39 0 -39 37t39 37h247q39 0 39 -37t-39 -37h-247z" />
    <glyph glyph-name="aogonek" unicode="&#x105;" horiz-adv-x="547" 
d="M429 -195q-55 0 -86.5 28t-31.5 76q0 32 17 61.5t47 50.5q-7 14 -7 35v22q-17 -41 -54 -64.5t-88 -23.5q-53 0 -94.5 20.5t-65 55.5t-23.5 79q0 54 28 85.5t91 45.5t169 14h35v21q0 50 -22 72t-74 22q-29 0 -62.5 -7t-70.5 -24q-24 -11 -40 -2.5t-21.5 27t2 37.5t30.5 28
q46 19 88.5 27t77.5 8q107 0 159 -49.5t52 -153.5v-240q0 -27 -10.5 -41t-29.5 -22q-23 -10 -39 -28t-16 -42q0 -25 16 -38t40 -13q15 0 30 4q24 7 34 -6t6 -30.5t-24 -25.5q-16 -6 -32.5 -7.5t-30.5 -1.5zM252 76q49 0 81.5 34t32.5 86v22h-34q-94 0 -130.5 -14.5
t-36.5 -52.5q0 -33 23 -54t64 -21z" />
    <glyph glyph-name="aring" unicode="&#xe5;" horiz-adv-x="547" 
d="M226 -10q-53 0 -94.5 20.5t-65 55.5t-23.5 79q0 54 28 85.5t91 45.5t169 14h35v21q0 50 -22 72t-74 22q-29 0 -62.5 -7t-70.5 -24q-24 -11 -40 -2.5t-21.5 27t2 37.5t30.5 28q46 19 88.5 27t77.5 8q107 0 159 -49.5t52 -153.5v-240q0 -64 -58 -64q-59 0 -59 64v22
q-17 -41 -54 -64.5t-88 -23.5zM252 76q49 0 81.5 34t32.5 86v22h-34q-94 0 -130.5 -14.5t-36.5 -52.5q0 -33 23 -54t64 -21zM279 546q-35 0 -64 16.5t-45.5 44.5t-16.5 62q0 52 36.5 87t89.5 35t89.5 -35t36.5 -87q0 -34 -16.5 -62t-45 -44.5t-64.5 -16.5zM279 603
q29 0 47 19t18 47t-18 46.5t-47 18.5q-28 0 -46.5 -18.5t-18.5 -46.5t18.5 -47t46.5 -19z" />
    <glyph glyph-name="aringacute" unicode="&#x1fb;" horiz-adv-x="547" 
d="M226 -10q-53 0 -94.5 20.5t-65 55.5t-23.5 79q0 54 28 85.5t91 45.5t169 14h35v21q0 50 -22 72t-74 22q-29 0 -62.5 -7t-70.5 -24q-24 -11 -40 -2.5t-21.5 27t2 37.5t30.5 28q46 19 88.5 27t77.5 8q107 0 159 -49.5t52 -153.5v-240q0 -64 -58 -64q-59 0 -59 64v22
q-17 -41 -54 -64.5t-88 -23.5zM252 76q49 0 81.5 34t32.5 86v22h-34q-94 0 -130.5 -14.5t-36.5 -52.5q0 -33 23 -54t64 -21zM279 541q-51 0 -86 34t-35 83q0 50 35 84t86 34q18 0 34 -5t30 -13l69 64q13 12 26.5 10.5t22.5 -11t10 -22t-12 -23.5l-73 -62q14 -26 14 -56
q0 -49 -35 -83t-86 -34zM279 594q29 0 47 18t18 46q0 29 -18 47t-47 18q-28 0 -46.5 -18t-18.5 -47q0 -28 18.5 -46t46.5 -18z" />
    <glyph glyph-name="atilde" unicode="&#xe3;" horiz-adv-x="547" 
d="M226 -10q-53 0 -94.5 20.5t-65 55.5t-23.5 79q0 54 28 85.5t91 45.5t169 14h35v21q0 50 -22 72t-74 22q-29 0 -62.5 -7t-70.5 -24q-24 -11 -40 -2.5t-21.5 27t2 37.5t30.5 28q46 19 88.5 27t77.5 8q107 0 159 -49.5t52 -153.5v-240q0 -64 -58 -64q-59 0 -59 64v22
q-17 -41 -54 -64.5t-88 -23.5zM252 76q49 0 81.5 34t32.5 86v22h-34q-94 0 -130.5 -14.5t-36.5 -52.5q0 -33 23 -54t64 -21zM116 581q-15 1 -23 10t-4 28q5 28 18.5 54.5t37.5 44.5t60 18q25 0 44 -10t35 -23t32 -23t35 -10q21 0 36.5 14.5t19.5 36.5q5 23 35 22
q15 -1 23 -10t4 -28q-5 -27 -19 -54t-37.5 -45t-59.5 -18q-25 0 -44 10t-35.5 23t-32.5 23t-34 10q-21 0 -36 -14t-20 -37t-35 -22z" />
    <glyph glyph-name="ae" unicode="&#xe6;" horiz-adv-x="865" 
d="M236 -10q-58 0 -101.5 20.5t-67.5 55.5t-24 79q0 54 28 85.5t91.5 45.5t171.5 14h32v21q0 50 -22.5 72t-72.5 22q-29 0 -62.5 -7t-70.5 -24q-24 -11 -40 -2.5t-21.5 27t2 37.5t30.5 28q46 19 88.5 27t77.5 8q123 0 167 -77q29 38 74.5 57.5t92.5 19.5q102 0 162 -65.5
t60 -179.5v-2q0 -34 -48 -34h-296q13 -133 146 -133q26 0 58.5 6.5t61.5 22.5q26 15 44 9.5t25.5 -21.5t2 -35.5t-28.5 -33.5q-35 -22 -80.5 -32.5t-84.5 -10.5q-74 0 -130 27t-85 82q-22 -52 -68.5 -80.5t-111.5 -28.5zM612 414q-52 0 -84.5 -32t-39.5 -92h239
q-4 60 -33 92t-82 32zM253 76q50 0 81.5 34.5t31.5 89.5v18h-34q-94 0 -130.5 -14.5t-36.5 -52.5q0 -33 23 -54t65 -21z" />
    <glyph glyph-name="aeacute" unicode="&#x1fd;" horiz-adv-x="865" 
d="M236 -10q-58 0 -101.5 20.5t-67.5 55.5t-24 79q0 54 28 85.5t91.5 45.5t171.5 14h32v21q0 50 -22.5 72t-72.5 22q-29 0 -62.5 -7t-70.5 -24q-24 -11 -40 -2.5t-21.5 27t2 37.5t30.5 28q46 19 88.5 27t77.5 8q123 0 167 -77q29 38 74.5 57.5t92.5 19.5q102 0 162 -65.5
t60 -179.5v-2q0 -34 -48 -34h-296q13 -133 146 -133q26 0 58.5 6.5t61.5 22.5q26 15 44 9.5t25.5 -21.5t2 -35.5t-28.5 -33.5q-35 -22 -80.5 -32.5t-84.5 -10.5q-74 0 -130 27t-85 82q-22 -52 -68.5 -80.5t-111.5 -28.5zM612 414q-52 0 -84.5 -32t-39.5 -92h239
q-4 60 -33 92t-82 32zM253 76q50 0 81.5 34.5t31.5 89.5v18h-34q-94 0 -130.5 -14.5t-36.5 -52.5q0 -33 23 -54t65 -21zM462 560q-10 -14 -24 -16t-27 5t-18.5 20t2.5 29l76 149q11 23 31 26.5t38.5 -6.5t25.5 -28.5t-7 -38.5z" />
    <glyph glyph-name="b" unicode="b" 
d="M347 -10q-54 0 -96 23.5t-63 63.5v-21q0 -64 -61 -64q-62 0 -62 64v594q0 63 62 63q63 0 63 -63v-233q22 37 63.5 59.5t93.5 22.5q65 0 113 -31t75 -87.5t27 -135.5q0 -78 -27 -135.5t-75.5 -88.5t-112.5 -31zM312 85q56 0 90 40.5t34 119.5q0 80 -34 119.5t-90 39.5
t-90 -39.5t-34 -119.5q0 -79 34 -119.5t90 -40.5z" />
    <glyph glyph-name="uni0253" unicode="&#x253;" 
d="M347 -10q-54 0 -96 23.5t-63 63.5v-21q0 -64 -61 -64q-62 0 -62 64v465q0 89 49 141.5t143 52.5q42 0 59 -14t17 -37q0 -24 -9 -38t-26 -12q-5 1 -11.5 1.5t-15.5 0.5q-37 0 -59 -23.5t-22 -70.5v-105q22 37 63.5 59.5t93.5 22.5q65 0 113 -31t75 -87.5t27 -135.5
q0 -78 -27 -135.5t-75.5 -88.5t-112.5 -31zM312 85q56 0 90 40.5t34 119.5q0 80 -34 119.5t-90 39.5t-90 -39.5t-34 -119.5q0 -79 34 -119.5t90 -40.5z" />
    <glyph glyph-name="c" unicode="c" horiz-adv-x="472" 
d="M291 -10q-77 0 -134 31.5t-88 89.5t-31 136t31 134.5t88 87t134 30.5q33 0 71.5 -9t72.5 -30q20 -12 23.5 -31t-5 -35t-25 -23t-37.5 5q-46 26 -89 26q-65 0 -100.5 -40.5t-35.5 -115.5q0 -74 35.5 -116.5t100.5 -42.5q43 0 89 25q21 12 37 5t23 -23.5t3 -35t-23 -30.5
q-33 -20 -70 -29t-70 -9z" />
    <glyph glyph-name="cacute" unicode="&#x107;" horiz-adv-x="472" 
d="M291 -10q-77 0 -134 31.5t-88 89.5t-31 136t31 134.5t88 87t134 30.5q33 0 71.5 -9t72.5 -30q20 -12 23.5 -31t-5 -35t-25 -23t-37.5 5q-46 26 -89 26q-65 0 -100.5 -40.5t-35.5 -115.5q0 -74 35.5 -116.5t100.5 -42.5q43 0 89 25q21 12 37 5t23 -23.5t3 -35t-23 -30.5
q-33 -20 -70 -29t-70 -9zM331 560q-10 -14 -24 -16t-27 5t-18.5 20t2.5 29l76 149q11 23 31 26.5t38.5 -6.5t25.5 -28.5t-7 -38.5z" />
    <glyph glyph-name="ccaron" unicode="&#x10d;" horiz-adv-x="472" 
d="M291 -10q-77 0 -134 31.5t-88 89.5t-31 136t31 134.5t88 87t134 30.5q33 0 71.5 -9t72.5 -30q20 -12 23.5 -31t-5 -35t-25 -23t-37.5 5q-46 26 -89 26q-65 0 -100.5 -40.5t-35.5 -115.5q0 -74 35.5 -116.5t100.5 -42.5q43 0 89 25q21 12 37 5t23 -23.5t3 -35t-23 -30.5
q-33 -20 -70 -29t-70 -9zM284 536q-45 0 -70 47l-72 131q-9 16 -4 29t17 19.5t25.5 4.5t22.5 -16l81 -126l81 126q9 14 22.5 16t25.5 -4.5t17 -19.5t-4 -29l-71 -131q-25 -47 -71 -47z" />
    <glyph glyph-name="ccedilla" unicode="&#xe7;" horiz-adv-x="472" 
d="M291 -10q-77 0 -134 31.5t-88 89.5t-31 136t31 134.5t88 87t134 30.5q33 0 71.5 -9t72.5 -30q20 -12 23.5 -31t-5 -35t-25 -23t-37.5 5q-46 26 -89 26q-65 0 -100.5 -40.5t-35.5 -115.5q0 -74 35.5 -116.5t100.5 -42.5q43 0 89 25q21 12 37 5t23 -23.5t3 -35t-23 -30.5
q-33 -20 -70 -29t-70 -9zM285 -195q-19 0 -40 2.5t-38 8.5q-20 7 -23 24t8.5 29t31.5 4q23 -8 51 -8q54 0 54 30q0 23 -37 23q-7 0 -14.5 -0.5t-15.5 -2.5q-14 -4 -23 3q-8 7 -5 26l11 76h67l-10 -58q6 1 11 1q41 0 66 -19t25 -53q0 -39 -33 -62.5t-86 -23.5z" />
    <glyph glyph-name="uni1E09" unicode="&#x1e09;" horiz-adv-x="472" 
d="M291 -10q-77 0 -134 31.5t-88 89.5t-31 136t31 134.5t88 87t134 30.5q33 0 71.5 -9t72.5 -30q20 -12 23.5 -31t-5 -35t-25 -23t-37.5 5q-46 26 -89 26q-65 0 -100.5 -40.5t-35.5 -115.5q0 -74 35.5 -116.5t100.5 -42.5q43 0 89 25q21 12 37 5t23 -23.5t3 -35t-23 -30.5
q-33 -20 -70 -29t-70 -9zM285 -195q-19 0 -40 2.5t-38 8.5q-20 7 -23 24t8.5 29t31.5 4q23 -8 51 -8q54 0 54 30q0 23 -37 23q-7 0 -14.5 -0.5t-15.5 -2.5q-14 -4 -23 3q-8 7 -5 26l11 76h67l-10 -58q6 1 11 1q41 0 66 -19t25 -53q0 -39 -33 -62.5t-86 -23.5zM331 560
q-10 -14 -24 -16t-27 5t-18.5 20t2.5 29l76 149q11 23 31 26.5t38.5 -6.5t25.5 -28.5t-7 -38.5z" />
    <glyph glyph-name="ccircumflex" unicode="&#x109;" horiz-adv-x="472" 
d="M291 -10q-77 0 -134 31.5t-88 89.5t-31 136t31 134.5t88 87t134 30.5q33 0 71.5 -9t72.5 -30q20 -12 23.5 -31t-5 -35t-25 -23t-37.5 5q-46 26 -89 26q-65 0 -100.5 -40.5t-35.5 -115.5q0 -74 35.5 -116.5t100.5 -42.5q43 0 89 25q21 12 37 5t23 -23.5t3 -35t-23 -30.5
q-33 -20 -70 -29t-70 -9zM426 597q9 -16 4 -29t-17 -19.5t-25.5 -4.5t-22.5 16l-81 126l-81 -126q-9 -14 -22.5 -16t-25.5 4.5t-17 19.5t4 29l72 132q24 45 70 45q47 0 71 -45z" />
    <glyph glyph-name="cdotaccent" unicode="&#x10b;" horiz-adv-x="472" 
d="M291 -10q-77 0 -134 31.5t-88 89.5t-31 136t31 134.5t88 87t134 30.5q33 0 71.5 -9t72.5 -30q20 -12 23.5 -31t-5 -35t-25 -23t-37.5 5q-46 26 -89 26q-65 0 -100.5 -40.5t-35.5 -115.5q0 -74 35.5 -116.5t100.5 -42.5q43 0 89 25q21 12 37 5t23 -23.5t3 -35t-23 -30.5
q-33 -20 -70 -29t-70 -9zM284 593q-65 0 -65 63q0 62 65 62q66 0 66 -62q0 -63 -66 -63z" />
    <glyph glyph-name="d" unicode="d" 
d="M253 -10q-64 0 -112.5 31t-75.5 88.5t-27 135.5q0 79 27 135.5t75.5 87.5t112.5 31q52 0 94 -23t63 -61v235q0 63 62 63q63 0 63 -63v-594q0 -64 -62 -64t-62 64v21q-21 -40 -63 -63.5t-95 -23.5zM288 85q56 0 90 40.5t34 119.5q0 80 -34 119.5t-90 39.5t-90 -39.5
t-34 -119.5q0 -79 34 -119.5t90 -40.5z" />
    <glyph glyph-name="eth" unicode="&#xf0;" horiz-adv-x="581" 
d="M283 -10q-73 0 -128 29.5t-86 81.5t-31 121q0 68 30 119t83 80t122 29q45 0 81.5 -13.5t61.5 -42.5q-14 53 -44 94t-67 68l-134 -61q-22 -10 -38.5 -4t-23 20t0 30.5t30.5 26.5l81 37q-13 6 -27.5 10.5t-29.5 9.5q-24 7 -33 22.5t-5 31.5t19.5 25t41.5 3q40 -9 74.5 -23
t65.5 -31l106 48q22 10 38.5 4t23.5 -20t1.5 -29.5t-28.5 -25.5l-66 -30q67 -58 104 -138t37 -174q0 -141 -67.5 -219.5t-192.5 -78.5zM287 86q59 0 91.5 37t32.5 99t-32.5 98t-91.5 36q-57 0 -90 -36t-33 -98q0 -64 32.5 -100t90.5 -36z" />
    <glyph glyph-name="dcaron" unicode="&#x10f;" 
d="M253 -10q-64 0 -112.5 31t-75.5 88.5t-27 135.5q0 79 27 135.5t75.5 87.5t112.5 31q52 0 94 -23t63 -61v235q0 63 62 63q63 0 63 -63v-594q0 -64 -62 -64t-62 64v21q-21 -40 -63 -63.5t-95 -23.5zM288 85q56 0 90 40.5t34 119.5q0 80 -34 119.5t-90 39.5t-90 -39.5
t-34 -119.5q0 -79 34 -119.5t90 -40.5zM605 506q-29 0 -29 31v134q0 42 42 42q43 0 37 -44l-18 -134q-5 -29 -32 -29z" />
    <glyph glyph-name="dcroat" unicode="&#x111;" 
d="M254 -10q-64 0 -112.5 31t-75.5 88.5t-27 135.5q0 79 27 135.5t75.5 87.5t112.5 31q52 0 94 -23t63 -61v129h-147q-47 0 -47 44t47 44h147v28q0 23 16 38t46 15t46.5 -15t16.5 -38v-28h46q46 0 46 -44t-46 -44h-46v-488q0 -64 -62 -64t-62 64v21q-21 -40 -62.5 -63.5
t-95.5 -23.5zM289 85q56 0 90 40.5t34 119.5q0 80 -34 119.5t-90 39.5t-90 -39.5t-34 -119.5q0 -79 34 -119.5t90 -40.5z" />
    <glyph glyph-name="uni1E0D" unicode="&#x1e0d;" 
d="M253 -10q-64 0 -112.5 31t-75.5 88.5t-27 135.5q0 79 27 135.5t75.5 87.5t112.5 31q52 0 94 -23t63 -61v235q0 63 62 63q63 0 63 -63v-594q0 -64 -62 -64t-62 64v21q-21 -40 -63 -63.5t-95 -23.5zM288 85q56 0 90 40.5t34 119.5q0 80 -34 119.5t-90 39.5t-90 -39.5
t-34 -119.5q0 -79 34 -119.5t90 -40.5zM302 -209q-65 0 -65 63q0 62 65 62q66 0 66 -62q0 -63 -66 -63z" />
    <glyph glyph-name="uni0257" unicode="&#x257;" 
d="M253 -10q-64 0 -112.5 31t-75.5 88.5t-27 135.5q0 79 27 135.5t75.5 87.5t112.5 31q52 0 94 -23t63 -61v106q0 89 49 141.5t143 52.5q42 0 59 -14t17 -37q0 -24 -9 -38t-26 -12q-5 1 -11.5 1.5t-15.5 0.5q-37 0 -59 -23.5t-22 -70.5v-466q0 -64 -62 -64t-62 64v21
q-21 -40 -63 -63.5t-95 -23.5zM288 86q56 0 90 40t34 119q0 80 -34 119.5t-90 39.5t-90 -39.5t-34 -119.5q0 -79 34 -119t90 -40z" />
    <glyph glyph-name="uni1E0F" unicode="&#x1e0f;" 
d="M253 -10q-64 0 -112.5 31t-75.5 88.5t-27 135.5q0 79 27 135.5t75.5 87.5t112.5 31q52 0 94 -23t63 -61v235q0 63 62 63q63 0 63 -63v-594q0 -64 -62 -64t-62 64v21q-21 -40 -63 -63.5t-95 -23.5zM288 85q56 0 90 40.5t34 119.5q0 80 -34 119.5t-90 39.5t-90 -39.5
t-34 -119.5q0 -79 34 -119.5t90 -40.5zM179 -165q-39 0 -39 37t39 37h247q39 0 39 -37t-39 -37h-247z" />
    <glyph glyph-name="uni01C6" unicode="&#x1c6;" horiz-adv-x="1074" 
d="M253 -10q-64 0 -112.5 31t-75.5 88.5t-27 135.5q0 79 27 135.5t75.5 87.5t112.5 31q52 0 94 -23t63 -61v235q0 63 62 63q63 0 63 -63v-594q0 -64 -62 -64t-62 64v21q-21 -40 -63 -63.5t-95 -23.5zM288 85q56 0 90 40.5t34 119.5q0 80 -34 119.5t-90 39.5t-90 -39.5
t-34 -119.5q0 -79 34 -119.5t90 -40.5zM695 0q-26 0 -39 16.5t-11 39.5t21 44l235 295h-212q-48 0 -48 47t48 47h296q30 0 44.5 -16t13 -38.5t-20.5 -43.5l-238 -297h224q48 0 48 -47t-48 -47h-313zM843 536q-45 0 -70 47l-72 131q-9 16 -4 29t17 19.5t25.5 4.5t22.5 -16
l81 -126l81 126q9 14 22.5 16t25.5 -4.5t17 -19.5t-4 -29l-71 -131q-25 -47 -71 -47z" />
    <glyph glyph-name="e" unicode="e" horiz-adv-x="542" 
d="M306 -10q-83 0 -143 31t-92.5 88t-32.5 135q0 76 31.5 133t87 89.5t126.5 32.5q104 0 164.5 -66t60.5 -180q0 -37 -48 -37h-302q14 -131 150 -131q26 0 58.5 6.5t61.5 22.5q26 15 44 9.5t25.5 -21.5t2 -35.5t-28.5 -33.5q-35 -22 -80.5 -32.5t-84.5 -10.5zM288 414
q-55 0 -89 -34t-41 -92h246q-4 61 -33.5 93.5t-82.5 32.5z" />
    <glyph glyph-name="eacute" unicode="&#xe9;" horiz-adv-x="542" 
d="M306 -10q-83 0 -143 31t-92.5 88t-32.5 135q0 76 31.5 133t87 89.5t126.5 32.5q104 0 164.5 -66t60.5 -180q0 -37 -48 -37h-302q14 -131 150 -131q26 0 58.5 6.5t61.5 22.5q26 15 44 9.5t25.5 -21.5t2 -35.5t-28.5 -33.5q-35 -22 -80.5 -32.5t-84.5 -10.5zM288 414
q-55 0 -89 -34t-41 -92h246q-4 61 -33.5 93.5t-82.5 32.5zM331 560q-10 -14 -24 -16t-27 5t-18.5 20t2.5 29l76 149q11 23 31 26.5t38.5 -6.5t25.5 -28.5t-7 -38.5z" />
    <glyph glyph-name="ebreve" unicode="&#x115;" horiz-adv-x="542" 
d="M306 -10q-83 0 -143 31t-92.5 88t-32.5 135q0 76 31.5 133t87 89.5t126.5 32.5q104 0 164.5 -66t60.5 -180q0 -37 -48 -37h-302q14 -131 150 -131q26 0 58.5 6.5t61.5 22.5q26 15 44 9.5t25.5 -21.5t2 -35.5t-28.5 -33.5q-35 -22 -80.5 -32.5t-84.5 -10.5zM288 414
q-55 0 -89 -34t-41 -92h246q-4 61 -33.5 93.5t-82.5 32.5zM284 551q-70 0 -111 44.5t-52 111.5q-3 20 6.5 32.5t25.5 13.5q35 2 41 -36q8 -45 32 -67.5t58 -22.5t58.5 22.5t31.5 67.5q6 38 41 36q17 -1 26 -13.5t6 -32.5q-10 -67 -51 -111.5t-112 -44.5z" />
    <glyph glyph-name="ecaron" unicode="&#x11b;" horiz-adv-x="542" 
d="M306 -10q-83 0 -143 31t-92.5 88t-32.5 135q0 76 31.5 133t87 89.5t126.5 32.5q104 0 164.5 -66t60.5 -180q0 -37 -48 -37h-302q14 -131 150 -131q26 0 58.5 6.5t61.5 22.5q26 15 44 9.5t25.5 -21.5t2 -35.5t-28.5 -33.5q-35 -22 -80.5 -32.5t-84.5 -10.5zM288 414
q-55 0 -89 -34t-41 -92h246q-4 61 -33.5 93.5t-82.5 32.5zM284 536q-45 0 -70 47l-72 131q-9 16 -4 29t17 19.5t25.5 4.5t22.5 -16l81 -126l81 126q9 14 22.5 16t25.5 -4.5t17 -19.5t-4 -29l-71 -131q-25 -47 -71 -47z" />
    <glyph glyph-name="uni1E1D" unicode="&#x1e1d;" horiz-adv-x="542" 
d="M306 -10q-83 0 -143 31t-92.5 88t-32.5 135q0 76 31.5 133t87 89.5t126.5 32.5q104 0 164.5 -66t60.5 -180q0 -37 -48 -37h-302q14 -131 150 -131q26 0 58.5 6.5t61.5 22.5q26 15 44 9.5t25.5 -21.5t2 -35.5t-28.5 -33.5q-35 -22 -80.5 -32.5t-84.5 -10.5zM288 414
q-55 0 -89 -34t-41 -92h246q-4 61 -33.5 93.5t-82.5 32.5zM285 -195q-19 0 -40 2.5t-38 8.5q-20 7 -23 24t8.5 29t31.5 4q23 -8 51 -8q54 0 54 30q0 23 -37 23q-7 0 -14.5 -0.5t-15.5 -2.5q-14 -4 -23 3q-8 7 -5 26l11 76h67l-10 -58q6 1 11 1q41 0 66 -19t25 -53
q0 -39 -33 -62.5t-86 -23.5zM284 551q-70 0 -111 44.5t-52 111.5q-3 20 6.5 32.5t25.5 13.5q35 2 41 -36q8 -45 32 -67.5t58 -22.5t58.5 22.5t31.5 67.5q6 38 41 36q17 -1 26 -13.5t6 -32.5q-10 -67 -51 -111.5t-112 -44.5z" />
    <glyph glyph-name="ecircumflex" unicode="&#xea;" horiz-adv-x="542" 
d="M306 -10q-83 0 -143 31t-92.5 88t-32.5 135q0 76 31.5 133t87 89.5t126.5 32.5q104 0 164.5 -66t60.5 -180q0 -37 -48 -37h-302q14 -131 150 -131q26 0 58.5 6.5t61.5 22.5q26 15 44 9.5t25.5 -21.5t2 -35.5t-28.5 -33.5q-35 -22 -80.5 -32.5t-84.5 -10.5zM288 414
q-55 0 -89 -34t-41 -92h246q-4 61 -33.5 93.5t-82.5 32.5zM426 597q9 -16 4 -29t-17 -19.5t-25.5 -4.5t-22.5 16l-81 126l-81 -126q-9 -14 -22.5 -16t-25.5 4.5t-17 19.5t4 29l72 132q24 45 70 45q47 0 71 -45z" />
    <glyph glyph-name="uni1EBF" unicode="&#x1ebf;" horiz-adv-x="542" 
d="M306 -10q-83 0 -143 31t-92.5 88t-32.5 135q0 76 31.5 133t87 89.5t126.5 32.5q104 0 164.5 -66t60.5 -180q0 -37 -48 -37h-302q14 -131 150 -131q26 0 58.5 6.5t61.5 22.5q26 15 44 9.5t25.5 -21.5t2 -35.5t-28.5 -33.5q-35 -22 -80.5 -32.5t-84.5 -10.5zM288 414
q-55 0 -89 -34t-41 -92h246q-4 61 -33.5 93.5t-82.5 32.5zM459 654q-12 -15 -28 -13.5t-24.5 15.5t2.5 33l62 110q11 20 28 22.5t31.5 -6t19 -24.5t-9.5 -34zM203 558q-16 -18 -34 -15.5t-26.5 18t4.5 34.5l65 97q15 22 32.5 30.5t39.5 8.5q23 0 40.5 -8.5t31.5 -30.5
l65 -97q13 -19 5 -34.5t-25.5 -18t-34.5 15.5l-82 91z" />
    <glyph glyph-name="uni1EC7" unicode="&#x1ec7;" horiz-adv-x="542" 
d="M306 -10q-83 0 -143 31t-92.5 88t-32.5 135q0 76 31.5 133t87 89.5t126.5 32.5q104 0 164.5 -66t60.5 -180q0 -37 -48 -37h-302q14 -131 150 -131q26 0 58.5 6.5t61.5 22.5q26 15 44 9.5t25.5 -21.5t2 -35.5t-28.5 -33.5q-35 -22 -80.5 -32.5t-84.5 -10.5zM288 414
q-55 0 -89 -34t-41 -92h246q-4 61 -33.5 93.5t-82.5 32.5zM284 -209q-65 0 -65 63q0 62 65 62q66 0 66 -62q0 -63 -66 -63zM426 597q9 -16 4 -29t-17 -19.5t-25.5 -4.5t-22.5 16l-81 126l-81 -126q-9 -14 -22.5 -16t-25.5 4.5t-17 19.5t4 29l72 132q24 45 70 45q47 0 71 -45
z" />
    <glyph glyph-name="uni1EC1" unicode="&#x1ec1;" horiz-adv-x="542" 
d="M306 -10q-83 0 -143 31t-92.5 88t-32.5 135q0 76 31.5 133t87 89.5t126.5 32.5q104 0 164.5 -66t60.5 -180q0 -37 -48 -37h-302q14 -131 150 -131q26 0 58.5 6.5t61.5 22.5q26 15 44 9.5t25.5 -21.5t2 -35.5t-28.5 -33.5q-35 -22 -80.5 -32.5t-84.5 -10.5zM288 414
q-55 0 -89 -34t-41 -92h246q-4 61 -33.5 93.5t-82.5 32.5zM438 654l-81 103q-14 18 -9.5 34t19 24.5t31.5 6t28 -22.5l62 -110q11 -19 2.5 -33t-24.5 -15.5t-28 13.5zM203 558q-16 -18 -34 -15.5t-26.5 18t4.5 34.5l65 97q15 22 32.5 30.5t39.5 8.5q23 0 40.5 -8.5
t31.5 -30.5l65 -97q13 -19 5 -34.5t-25.5 -18t-34.5 15.5l-82 91z" />
    <glyph glyph-name="uni1EC3" unicode="&#x1ec3;" horiz-adv-x="542" 
d="M306 -10q-83 0 -143 31t-92.5 88t-32.5 135q0 76 31.5 133t87 89.5t126.5 32.5q104 0 164.5 -66t60.5 -180q0 -37 -48 -37h-302q14 -131 150 -131q26 0 58.5 6.5t61.5 22.5q26 15 44 9.5t25.5 -21.5t2 -35.5t-28.5 -33.5q-35 -22 -80.5 -32.5t-84.5 -10.5zM288 414
q-55 0 -89 -34t-41 -92h246q-4 61 -33.5 93.5t-82.5 32.5zM445 654q-13 -7 -26 -2.5t-16.5 15.5t8.5 21q16 13 25.5 24t9.5 24q0 24 -37 24q-7 0 -15.5 -1t-17.5 -3q-28 -7 -36 15q-8 25 21 34q17 5 35.5 7t38.5 2q44 0 68.5 -14t24.5 -45q0 -20 -13 -39.5t-32 -35
t-38 -26.5zM203 558q-16 -18 -34 -15.5t-26.5 18t4.5 34.5l65 97q15 22 32.5 30.5t39.5 8.5q23 0 40.5 -8.5t31.5 -30.5l65 -97q13 -19 5 -34.5t-25.5 -18t-34.5 15.5l-82 91z" />
    <glyph glyph-name="uni1EC5" unicode="&#x1ec5;" horiz-adv-x="542" 
d="M306 -10q-83 0 -143 31t-92.5 88t-32.5 135q0 76 31.5 133t87 89.5t126.5 32.5q104 0 164.5 -66t60.5 -180q0 -37 -48 -37h-302q14 -131 150 -131q26 0 58.5 6.5t61.5 22.5q26 15 44 9.5t25.5 -21.5t2 -35.5t-28.5 -33.5q-35 -22 -80.5 -32.5t-84.5 -10.5zM288 414
q-55 0 -89 -34t-41 -92h246q-4 61 -33.5 93.5t-82.5 32.5zM143 710q-14 1 -21.5 11t-3.5 26q10 37 36.5 56t63.5 19q27 0 49 -11t41.5 -22t38.5 -11q15 0 27 5.5t17 18.5q9 23 35 22q14 -1 22 -10.5t3 -26.5q-10 -37 -36.5 -56t-63.5 -19q-27 0 -49.5 11t-41.5 22t-38 11
q-15 0 -27 -5.5t-17 -18.5q-9 -23 -35 -22zM194 552q-16 -13 -31.5 -8.5t-21 18t6.5 27.5l59 70q17 20 36 27.5t41 7.5q23 0 42.5 -7.5t35.5 -27.5l58 -70q12 -14 6.5 -28t-20.5 -18.5t-32 9.5l-90 74z" />
    <glyph glyph-name="uni0205" unicode="&#x205;" horiz-adv-x="542" 
d="M306 -10q-83 0 -143 31t-92.5 88t-32.5 135q0 76 31.5 133t87 89.5t126.5 32.5q104 0 164.5 -66t60.5 -180q0 -37 -48 -37h-302q14 -131 150 -131q26 0 58.5 6.5t61.5 22.5q26 15 44 9.5t25.5 -21.5t2 -35.5t-28.5 -33.5q-35 -22 -80.5 -32.5t-84.5 -10.5zM288 414
q-55 0 -89 -34t-41 -92h246q-4 61 -33.5 93.5t-82.5 32.5zM175 564l-65 148q-10 24 -0.5 39.5t29 20.5t37.5 -3t24 -33l38 -153q5 -20 -8 -31t-30 -8.5t-25 20.5zM323 564l-65 148q-10 24 0 39.5t29 20.5t37.5 -3t24.5 -33l37 -153q5 -20 -8 -31t-30 -8.5t-25 20.5z" />
    <glyph glyph-name="edieresis" unicode="&#xeb;" horiz-adv-x="542" 
d="M306 -10q-83 0 -143 31t-92.5 88t-32.5 135q0 76 31.5 133t87 89.5t126.5 32.5q104 0 164.5 -66t60.5 -180q0 -37 -48 -37h-302q14 -131 150 -131q26 0 58.5 6.5t61.5 22.5q26 15 44 9.5t25.5 -21.5t2 -35.5t-28.5 -33.5q-35 -22 -80.5 -32.5t-84.5 -10.5zM288 414
q-55 0 -89 -34t-41 -92h246q-4 61 -33.5 93.5t-82.5 32.5zM379 593q-62 0 -62 62q0 61 62 61q61 0 61 -61q0 -62 -61 -62zM190 593q-29 0 -45.5 16t-16.5 46q0 29 16.5 45t45.5 16q62 0 62 -61q0 -62 -62 -62z" />
    <glyph glyph-name="edotaccent" unicode="&#x117;" horiz-adv-x="542" 
d="M306 -10q-83 0 -143 31t-92.5 88t-32.5 135q0 76 31.5 133t87 89.5t126.5 32.5q104 0 164.5 -66t60.5 -180q0 -37 -48 -37h-302q14 -131 150 -131q26 0 58.5 6.5t61.5 22.5q26 15 44 9.5t25.5 -21.5t2 -35.5t-28.5 -33.5q-35 -22 -80.5 -32.5t-84.5 -10.5zM288 414
q-55 0 -89 -34t-41 -92h246q-4 61 -33.5 93.5t-82.5 32.5zM284 593q-65 0 -65 63q0 62 65 62q66 0 66 -62q0 -63 -66 -63z" />
    <glyph glyph-name="uni1EB9" unicode="&#x1eb9;" horiz-adv-x="542" 
d="M306 -10q-83 0 -143 31t-92.5 88t-32.5 135q0 76 31.5 133t87 89.5t126.5 32.5q104 0 164.5 -66t60.5 -180q0 -37 -48 -37h-302q14 -131 150 -131q26 0 58.5 6.5t61.5 22.5q26 15 44 9.5t25.5 -21.5t2 -35.5t-28.5 -33.5q-35 -22 -80.5 -32.5t-84.5 -10.5zM288 414
q-55 0 -89 -34t-41 -92h246q-4 61 -33.5 93.5t-82.5 32.5zM284 -209q-65 0 -65 63q0 62 65 62q66 0 66 -62q0 -63 -66 -63z" />
    <glyph glyph-name="egrave" unicode="&#xe8;" horiz-adv-x="542" 
d="M306 -10q-83 0 -143 31t-92.5 88t-32.5 135q0 76 31.5 133t87 89.5t126.5 32.5q104 0 164.5 -66t60.5 -180q0 -37 -48 -37h-302q14 -131 150 -131q26 0 58.5 6.5t61.5 22.5q26 15 44 9.5t25.5 -21.5t2 -35.5t-28.5 -33.5q-35 -22 -80.5 -32.5t-84.5 -10.5zM288 414
q-55 0 -89 -34t-41 -92h246q-4 61 -33.5 93.5t-82.5 32.5zM238 560l-97 140q-14 21 -7 39t25 28t38 6.5t32 -26.5l75 -149q8 -16 3 -29t-18 -20t-27 -5t-24 16z" />
    <glyph glyph-name="uni1EBB" unicode="&#x1ebb;" horiz-adv-x="542" 
d="M306 -10q-83 0 -143 31t-92.5 88t-32.5 135q0 76 31.5 133t87 89.5t126.5 32.5q104 0 164.5 -66t60.5 -180q0 -37 -48 -37h-302q14 -131 150 -131q26 0 58.5 6.5t61.5 22.5q26 15 44 9.5t25.5 -21.5t2 -35.5t-28.5 -33.5q-35 -22 -80.5 -32.5t-84.5 -10.5zM288 414
q-55 0 -89 -34t-41 -92h246q-4 61 -33.5 93.5t-82.5 32.5zM284 546q-38 0 -38 27q0 22 8.5 36.5t19.5 25t19.5 20t8.5 22.5q0 25 -40 25q-8 0 -17 -1t-19 -4q-17 -5 -26.5 -2.5t-14.5 15.5q-11 29 21 42q18 7 39.5 10t44.5 3q50 0 78.5 -18.5t28.5 -53.5q0 -25 -11.5 -40.5
t-26 -26.5t-26 -23.5t-11.5 -31.5q0 -25 -38 -25z" />
    <glyph glyph-name="uni0207" unicode="&#x207;" horiz-adv-x="542" 
d="M306 -10q-83 0 -143 31t-92.5 88t-32.5 135q0 76 31.5 133t87 89.5t126.5 32.5q104 0 164.5 -66t60.5 -180q0 -37 -48 -37h-302q14 -131 150 -131q26 0 58.5 6.5t61.5 22.5q26 15 44 9.5t25.5 -21.5t2 -35.5t-28.5 -33.5q-35 -22 -80.5 -32.5t-84.5 -10.5zM288 414
q-55 0 -89 -34t-41 -92h246q-4 61 -33.5 93.5t-82.5 32.5zM153 549q-16 1 -25.5 13.5t-6.5 32.5q10 67 51.5 111.5t111.5 44.5q71 0 112 -44.5t51 -111.5q3 -20 -6 -32.5t-26 -13.5q-35 -2 -41 36q-7 45 -31.5 67.5t-58.5 22.5t-58 -22.5t-32 -67.5q-6 -38 -41 -36z" />
    <glyph glyph-name="emacron" unicode="&#x113;" horiz-adv-x="542" 
d="M306 -10q-83 0 -143 31t-92.5 88t-32.5 135q0 76 31.5 133t87 89.5t126.5 32.5q104 0 164.5 -66t60.5 -180q0 -37 -48 -37h-302q14 -131 150 -131q26 0 58.5 6.5t61.5 22.5q26 15 44 9.5t25.5 -21.5t2 -35.5t-28.5 -33.5q-35 -22 -80.5 -32.5t-84.5 -10.5zM288 414
q-55 0 -89 -34t-41 -92h246q-4 61 -33.5 93.5t-82.5 32.5zM161 616q-39 0 -39 37t39 37h247q39 0 39 -37t-39 -37h-247z" />
    <glyph glyph-name="uni1E17" unicode="&#x1e17;" horiz-adv-x="542" 
d="M306 -10q-83 0 -143 31t-92.5 88t-32.5 135q0 76 31.5 133t87 89.5t126.5 32.5q104 0 164.5 -66t60.5 -180q0 -37 -48 -37h-302q14 -131 150 -131q26 0 58.5 6.5t61.5 22.5q26 15 44 9.5t25.5 -21.5t2 -35.5t-28.5 -33.5q-35 -22 -80.5 -32.5t-84.5 -10.5zM288 414
q-55 0 -89 -34t-41 -92h246q-4 61 -33.5 93.5t-82.5 32.5zM322 677q-14 -17 -32 -15t-27 16.5t1 33.5l50 91q12 21 31.5 24.5t36 -6t22 -26.5t-11.5 -37zM164 567q-42 0 -42 37t42 37h240q42 0 42 -37t-42 -37h-240z" />
    <glyph glyph-name="uni1E15" unicode="&#x1e15;" horiz-adv-x="542" 
d="M306 -10q-83 0 -143 31t-92.5 88t-32.5 135q0 76 31.5 133t87 89.5t126.5 32.5q104 0 164.5 -66t60.5 -180q0 -37 -48 -37h-302q14 -131 150 -131q26 0 58.5 6.5t61.5 22.5q26 15 44 9.5t25.5 -21.5t2 -35.5t-28.5 -33.5q-35 -22 -80.5 -32.5t-84.5 -10.5zM288 414
q-55 0 -89 -34t-41 -92h246q-4 61 -33.5 93.5t-82.5 32.5zM246 677l-70 81q-17 20 -11.5 37t22 26.5t36 6t31.5 -24.5l50 -91q11 -19 1.5 -33.5t-27 -16.5t-32.5 15zM164 567q-42 0 -42 37t42 37h240q42 0 42 -37t-42 -37h-240z" />
    <glyph glyph-name="eogonek" unicode="&#x119;" horiz-adv-x="542" 
d="M306 -10q-83 0 -143 31t-92.5 88t-32.5 135q0 76 31.5 133t87 89.5t126.5 32.5q104 0 164.5 -66t60.5 -180q0 -37 -48 -37h-302q14 -131 150 -131q26 0 58.5 6.5t61.5 22.5q26 15 44 9.5t25.5 -21.5t2 -35.5t-28.5 -33.5q-35 -22 -80.5 -32.5t-84.5 -10.5zM288 414
q-55 0 -89 -34t-41 -92h246q-4 61 -33.5 93.5t-82.5 32.5zM350 -195q-55 0 -86.5 28t-31.5 76q0 42 28 78t74 55l37 -42q-25 -10 -42.5 -30.5t-17.5 -46.5q0 -25 16 -38t40 -13q15 0 30 4q24 7 34 -6t6 -30.5t-24 -25.5q-16 -6 -32.5 -7.5t-30.5 -1.5z" />
    <glyph glyph-name="uni1EBD" unicode="&#x1ebd;" horiz-adv-x="542" 
d="M306 -10q-83 0 -143 31t-92.5 88t-32.5 135q0 76 31.5 133t87 89.5t126.5 32.5q104 0 164.5 -66t60.5 -180q0 -37 -48 -37h-302q14 -131 150 -131q26 0 58.5 6.5t61.5 22.5q26 15 44 9.5t25.5 -21.5t2 -35.5t-28.5 -33.5q-35 -22 -80.5 -32.5t-84.5 -10.5zM288 414
q-55 0 -89 -34t-41 -92h246q-4 61 -33.5 93.5t-82.5 32.5zM121 581q-15 1 -23 10t-4 28q5 28 18.5 54.5t37.5 44.5t60 18q25 0 44 -10t35 -23t32 -23t35 -10q21 0 36.5 14.5t19.5 36.5q5 23 35 22q15 -1 23 -10t4 -28q-5 -27 -19 -54t-37.5 -45t-59.5 -18q-25 0 -44 10
t-35.5 23t-32.5 23t-34 10q-21 0 -36 -14t-20 -37t-35 -22z" />
    <glyph glyph-name="uni0259" unicode="&#x259;" horiz-adv-x="543" 
d="M262 -10q-108 0 -167.5 65t-59.5 181q0 37 48 37h302q-14 131 -150 131q-25 0 -57.5 -6.5t-61.5 -23.5q-26 -15 -44.5 -9.5t-26 22t-1.5 36t28 33.5q35 22 80.5 32.5t84.5 10.5q83 0 143 -31t92.5 -88t32.5 -135q0 -75 -31 -132.5t-85.5 -90t-126.5 -32.5zM259 75
q56 0 87.5 34t38.5 92h-241q4 -61 31.5 -93.5t83.5 -32.5z" />
    <glyph glyph-name="uni0292" unicode="&#x292;" horiz-adv-x="516" 
d="M233 -190q-119 0 -199 44q-22 12 -27.5 31.5t2.5 36.5t24.5 24t37.5 -5q30 -17 67 -26.5t80 -9.5q73 0 109 30.5t36 88.5q0 53 -36 81.5t-106 28.5h-69q-28 0 -34 23.5t16 45.5l181 188h-240q-51 0 -51 49t51 49h335q28 0 41.5 -16.5t11.5 -39.5t-22 -44l-163 -170
q99 -2 154 -51.5t55 -135.5q0 -102 -68.5 -162t-185.5 -60z" />
    <glyph glyph-name="uni01EF" unicode="&#x1ef;" horiz-adv-x="516" 
d="M233 -190q-119 0 -199 44q-22 12 -27.5 31.5t2.5 36.5t24.5 24t37.5 -5q30 -17 67 -26.5t80 -9.5q73 0 109 30.5t36 88.5q0 53 -36 81.5t-106 28.5h-69q-28 0 -34 23.5t16 45.5l181 188h-240q-51 0 -51 49t51 49h335q28 0 41.5 -16.5t11.5 -39.5t-22 -44l-163 -170
q99 -2 154 -51.5t55 -135.5q0 -102 -68.5 -162t-185.5 -60zM244 536q-45 0 -70 47l-72 131q-9 16 -4 29t17 19.5t25.5 4.5t22.5 -16l81 -126l81 126q9 14 22.5 16t25.5 -4.5t17 -19.5t-4 -29l-71 -131q-25 -47 -71 -47z" />
    <glyph glyph-name="f" unicode="f" horiz-adv-x="364" 
d="M161 -8q-63 0 -63 64v339h-46q-50 0 -50 47t50 47h46v1q0 103 52 154.5t150 60.5l34 3q26 2 38 -11t12.5 -31.5t-9.5 -33t-29 -16.5l-14 -1q-57 -4 -83 -29t-26 -76v-21h85q50 0 50 -47t-50 -47h-85v-339q0 -64 -62 -64z" />
    <glyph glyph-name="g" unicode="g" horiz-adv-x="604" 
d="M293 -190q-54 0 -104.5 10t-91.5 31q-24 12 -28.5 30.5t3.5 35.5t24.5 24.5t35.5 -1.5q44 -22 83.5 -28.5t67.5 -6.5q134 0 134 129v67q-21 -41 -64.5 -65t-96.5 -24q-66 0 -115 30.5t-76 85.5t-27 128t27 127.5t76 85t115 30.5q53 0 96 -23t63 -63v21q0 31 16.5 47
t45.5 16q62 0 62 -63v-385q0 -119 -63 -179t-183 -60zM290 107q58 0 92 40t34 109t-34 108.5t-92 39.5t-92 -39.5t-34 -108.5t34 -109t92 -40z" />
    <glyph glyph-name="gbreve" unicode="&#x11f;" horiz-adv-x="604" 
d="M293 -190q-54 0 -104.5 10t-91.5 31q-24 12 -28.5 30.5t3.5 35.5t24.5 24.5t35.5 -1.5q44 -22 83.5 -28.5t67.5 -6.5q134 0 134 129v67q-21 -41 -64.5 -65t-96.5 -24q-66 0 -115 30.5t-76 85.5t-27 128t27 127.5t76 85t115 30.5q53 0 96 -23t63 -63v21q0 31 16.5 47
t45.5 16q62 0 62 -63v-385q0 -119 -63 -179t-183 -60zM290 107q58 0 92 40t34 109t-34 108.5t-92 39.5t-92 -39.5t-34 -108.5t34 -109t92 -40zM303 551q-70 0 -111 44.5t-52 111.5q-3 20 6.5 32.5t25.5 13.5q35 2 41 -36q8 -45 32 -67.5t58 -22.5t58.5 22.5t31.5 67.5
q6 38 41 36q17 -1 26 -13.5t6 -32.5q-10 -67 -51 -111.5t-112 -44.5z" />
    <glyph glyph-name="gcaron" unicode="&#x1e7;" horiz-adv-x="604" 
d="M293 -190q-54 0 -104.5 10t-91.5 31q-24 12 -28.5 30.5t3.5 35.5t24.5 24.5t35.5 -1.5q44 -22 83.5 -28.5t67.5 -6.5q134 0 134 129v67q-21 -41 -64.5 -65t-96.5 -24q-66 0 -115 30.5t-76 85.5t-27 128t27 127.5t76 85t115 30.5q53 0 96 -23t63 -63v21q0 31 16.5 47
t45.5 16q62 0 62 -63v-385q0 -119 -63 -179t-183 -60zM290 107q58 0 92 40t34 109t-34 108.5t-92 39.5t-92 -39.5t-34 -108.5t34 -109t92 -40zM303 536q-45 0 -70 47l-72 131q-9 16 -4 29t17 19.5t25.5 4.5t22.5 -16l81 -126l81 126q9 14 22.5 16t25.5 -4.5t17 -19.5t-4 -29
l-71 -131q-25 -47 -71 -47z" />
    <glyph glyph-name="gcircumflex" unicode="&#x11d;" horiz-adv-x="604" 
d="M293 -190q-54 0 -104.5 10t-91.5 31q-24 12 -28.5 30.5t3.5 35.5t24.5 24.5t35.5 -1.5q44 -22 83.5 -28.5t67.5 -6.5q134 0 134 129v67q-21 -41 -64.5 -65t-96.5 -24q-66 0 -115 30.5t-76 85.5t-27 128t27 127.5t76 85t115 30.5q53 0 96 -23t63 -63v21q0 31 16.5 47
t45.5 16q62 0 62 -63v-385q0 -119 -63 -179t-183 -60zM290 107q58 0 92 40t34 109t-34 108.5t-92 39.5t-92 -39.5t-34 -108.5t34 -109t92 -40zM445 597q9 -16 4 -29t-17 -19.5t-25.5 -4.5t-22.5 16l-81 126l-81 -126q-9 -14 -22.5 -16t-25.5 4.5t-17 19.5t4 29l72 132
q24 45 70 45q47 0 71 -45z" />
    <glyph glyph-name="uni0123" unicode="&#x123;" horiz-adv-x="604" 
d="M293 -190q-54 0 -104.5 10t-91.5 31q-24 12 -28.5 30.5t3.5 35.5t24.5 24.5t35.5 -1.5q44 -22 83.5 -28.5t67.5 -6.5q134 0 134 129v67q-21 -41 -64.5 -65t-96.5 -24q-66 0 -115 30.5t-76 85.5t-27 128t27 127.5t76 85t115 30.5q53 0 96 -23t63 -63v21q0 31 16.5 47
t45.5 16q62 0 62 -63v-385q0 -119 -63 -179t-183 -60zM290 107q58 0 92 40t34 109t-34 108.5t-92 39.5t-92 -39.5t-34 -108.5t34 -109t92 -40zM304 558q-68 0 -68 69q0 32 10 65.5t31 58.5q14 16 30 14.5t23.5 -15.5t-6.5 -34q-12 -18 -17 -41q64 -3 64 -59q0 -58 -67 -58z
" />
    <glyph glyph-name="gdotaccent" unicode="&#x121;" horiz-adv-x="604" 
d="M293 -190q-54 0 -104.5 10t-91.5 31q-24 12 -28.5 30.5t3.5 35.5t24.5 24.5t35.5 -1.5q44 -22 83.5 -28.5t67.5 -6.5q134 0 134 129v67q-21 -41 -64.5 -65t-96.5 -24q-66 0 -115 30.5t-76 85.5t-27 128t27 127.5t76 85t115 30.5q53 0 96 -23t63 -63v21q0 31 16.5 47
t45.5 16q62 0 62 -63v-385q0 -119 -63 -179t-183 -60zM290 107q58 0 92 40t34 109t-34 108.5t-92 39.5t-92 -39.5t-34 -108.5t34 -109t92 -40zM303 593q-65 0 -65 63q0 62 65 62q66 0 66 -62q0 -63 -66 -63z" />
    <glyph glyph-name="uni1E21" unicode="&#x1e21;" horiz-adv-x="604" 
d="M293 -190q-54 0 -104.5 10t-91.5 31q-24 12 -28.5 30.5t3.5 35.5t24.5 24.5t35.5 -1.5q44 -22 83.5 -28.5t67.5 -6.5q134 0 134 129v67q-21 -41 -64.5 -65t-96.5 -24q-66 0 -115 30.5t-76 85.5t-27 128t27 127.5t76 85t115 30.5q53 0 96 -23t63 -63v21q0 31 16.5 47
t45.5 16q62 0 62 -63v-385q0 -119 -63 -179t-183 -60zM290 107q58 0 92 40t34 109t-34 108.5t-92 39.5t-92 -39.5t-34 -108.5t34 -109t92 -40zM180 616q-39 0 -39 37t39 37h247q39 0 39 -37t-39 -37h-247z" />
    <glyph glyph-name="uni01E5" unicode="&#x1e5;" horiz-adv-x="604" 
d="M293 -190q-54 0 -103.5 9.5t-92.5 31.5q-24 12 -28.5 31t4 36t25 24.5t34.5 -2.5q35 -19 78.5 -27t72.5 -8q72 0 106 38h-64q-17 0 -28.5 11.5t-11.5 27.5q0 17 11.5 28t28.5 11h92v13v99q-20 -41 -63 -65.5t-97 -24.5q-65 0 -114.5 29.5t-77 81.5t-27.5 117
q0 66 27.5 117.5t77 81t114.5 29.5q53 0 95.5 -23t62.5 -63v23q0 29 16.5 45t45.5 16q62 0 62 -61v-387q0 -14 -1 -28h26q17 0 28.5 -11t11.5 -28q0 -16 -11.5 -27.5t-28.5 -11.5h-41q-50 -133 -230 -133zM290 138q56 0 90.5 37t34.5 96t-34.5 96t-90.5 37t-91 -36.5
t-35 -96.5t35.5 -96.5t90.5 -36.5z" />
    <glyph glyph-name="h" unicode="h" horiz-adv-x="585" 
d="M127 -8q-62 0 -62 64v594q0 63 62 63q63 0 63 -63v-232q25 40 67 60.5t93 20.5q173 0 173 -201v-242q0 -64 -62 -64q-63 0 -63 64v236q0 57 -21.5 83t-66.5 26q-55 0 -87.5 -34.5t-32.5 -91.5v-219q0 -64 -63 -64z" />
    <glyph glyph-name="hbar" unicode="&#x127;" horiz-adv-x="585" 
d="M127 -8q-62 0 -62 64v488h-44q-47 0 -47 44t47 44h44v23q0 27 16 42.5t46 15.5t46.5 -15.5t16.5 -42.5v-23h145q46 0 46 -44t-46 -44h-145v-126q25 40 67 60.5t93 20.5q173 0 173 -201v-242q0 -64 -62 -64q-63 0 -63 64v236q0 57 -21.5 83t-66.5 26q-55 0 -87.5 -34.5
t-32.5 -91.5v-219q0 -64 -63 -64z" />
    <glyph glyph-name="uni1E2B" unicode="&#x1e2b;" horiz-adv-x="585" 
d="M127 -8q-62 0 -62 64v594q0 63 62 63q63 0 63 -63v-232q25 40 67 60.5t93 20.5q173 0 173 -201v-242q0 -64 -62 -64q-63 0 -63 64v236q0 57 -21.5 83t-66.5 26q-55 0 -87.5 -34.5t-32.5 -91.5v-219q0 -64 -63 -64zM294 -215q-62 0 -104.5 30.5t-56.5 86.5q-5 21 3.5 33.5
t24.5 13.5q16 2 27 -4.5t16 -24.5q8 -28 32 -44.5t58 -16.5q35 0 58.5 16.5t31.5 44.5q5 18 16 24.5t27 4.5q17 -1 25 -13.5t3 -33.5q-14 -56 -56.5 -86.5t-104.5 -30.5z" />
    <glyph glyph-name="uni021F" unicode="&#x21f;" horiz-adv-x="585" 
d="M127 -8q-62 0 -62 64v594q0 63 62 63q63 0 63 -63v-232q25 40 67 60.5t93 20.5q173 0 173 -201v-242q0 -64 -62 -64q-63 0 -63 64v236q0 57 -21.5 83t-66.5 26q-55 0 -87.5 -34.5t-32.5 -91.5v-219q0 -64 -63 -64zM294 754q-46 0 -73 39l-73 102q-10 14 -6.5 27
t15.5 20.5t26.5 6t26.5 -15.5l84 -98l85 98q16 19 35.5 16t29.5 -18.5t-4 -35.5l-72 -102q-27 -39 -74 -39z" />
    <glyph glyph-name="hcircumflex" unicode="&#x125;" horiz-adv-x="585" 
d="M127 -8q-62 0 -62 64v594q0 63 62 63q63 0 63 -63v-232q25 40 67 60.5t93 20.5q173 0 173 -201v-242q0 -64 -62 -64q-63 0 -63 64v236q0 57 -21.5 83t-66.5 26q-55 0 -87.5 -34.5t-32.5 -91.5v-219q0 -64 -63 -64zM210 771q-16 -17 -36 -14t-29.5 18.5t3.5 34.5l73 101
q27 40 73 40q45 0 74 -40l72 -101q14 -19 4.5 -34.5t-29 -18.5t-36.5 14l-85 98z" />
    <glyph glyph-name="uni1E25" unicode="&#x1e25;" horiz-adv-x="585" 
d="M127 -8q-62 0 -62 64v594q0 63 62 63q63 0 63 -63v-232q25 40 67 60.5t93 20.5q173 0 173 -201v-242q0 -64 -62 -64q-63 0 -63 64v236q0 57 -21.5 83t-66.5 26q-55 0 -87.5 -34.5t-32.5 -91.5v-219q0 -64 -63 -64zM294 -209q-65 0 -65 63q0 62 65 62q66 0 66 -62
q0 -63 -66 -63z" />
    <glyph glyph-name="i" unicode="i" horiz-adv-x="255" 
d="M127 589q-35 0 -54.5 17.5t-19.5 48.5q0 32 19.5 49t54.5 17q74 0 74 -66t-74 -66zM127 -7q-30 0 -46 18t-16 50v367q0 68 62 68q63 0 63 -68v-367q0 -32 -16 -50t-47 -18z" />
    <glyph glyph-name="dotlessi" unicode="&#x131;" horiz-adv-x="255" 
d="M127 -7q-30 0 -46 18t-16 50v367q0 68 62 68q63 0 63 -68v-367q0 -32 -16 -50t-47 -18z" />
    <glyph glyph-name="iacute" unicode="&#xed;" horiz-adv-x="255" 
d="M127 -7q-30 0 -46 18t-16 50v367q0 68 62 68q63 0 63 -68v-367q0 -32 -16 -50t-47 -18zM174 560q-10 -14 -24 -16t-27 5t-18.5 20t2.5 29l76 149q11 23 31 26.5t38.5 -6.5t25.5 -28.5t-7 -38.5z" />
    <glyph glyph-name="ibreve" unicode="&#x12d;" horiz-adv-x="255" 
d="M127 -7q-30 0 -46 18t-16 50v367q0 68 62 68q63 0 63 -68v-367q0 -32 -16 -50t-47 -18zM127 551q-70 0 -111 44.5t-52 111.5q-3 20 6.5 32.5t25.5 13.5q35 2 41 -36q8 -45 32 -67.5t58 -22.5t58.5 22.5t31.5 67.5q6 38 41 36q17 -1 26 -13.5t6 -32.5q-10 -67 -51 -111.5
t-112 -44.5z" />
    <glyph glyph-name="icircumflex" unicode="&#xee;" horiz-adv-x="255" 
d="M127 -7q-30 0 -46 18t-16 50v367q0 68 62 68q63 0 63 -68v-367q0 -32 -16 -50t-47 -18zM269 597q9 -16 4 -29t-17 -19.5t-25.5 -4.5t-22.5 16l-81 126l-81 -126q-9 -14 -22.5 -16t-25.5 4.5t-17 19.5t4 29l72 132q24 45 70 45q47 0 71 -45z" />
    <glyph glyph-name="uni0209" unicode="&#x209;" horiz-adv-x="255" 
d="M127 -7q-30 0 -46 18t-16 50v367q0 68 62 68q63 0 63 -68v-367q0 -32 -16 -50t-47 -18zM18 564l-65 148q-10 24 -0.5 39.5t29 20.5t37.5 -3t24 -33l38 -153q5 -20 -8 -31t-30 -8.5t-25 20.5zM166 564l-65 148q-10 24 0 39.5t29 20.5t37.5 -3t24.5 -33l37 -153
q5 -20 -8 -31t-30 -8.5t-25 20.5z" />
    <glyph glyph-name="idieresis" unicode="&#xef;" horiz-adv-x="255" 
d="M127 -7q-30 0 -46 18t-16 50v367q0 68 62 68q63 0 63 -68v-367q0 -32 -16 -50t-47 -18zM222 593q-62 0 -62 62q0 61 62 61q61 0 61 -61q0 -62 -61 -62zM33 593q-29 0 -45.5 16t-16.5 46q0 29 16.5 45t45.5 16q62 0 62 -61q0 -62 -62 -62z" />
    <glyph glyph-name="uni1E2F" unicode="&#x1e2f;" horiz-adv-x="255" 
d="M127 -7q-30 0 -46 18t-16 50v367q0 68 62 68q63 0 63 -68v-367q0 -32 -16 -50t-47 -18zM166 677q-14 -16 -32 -14t-27 16.5t1 33.5l49 90q12 21 31 24t36 -6.5t21.5 -27.5t-12.5 -38zM33 550q-29 0 -45.5 12.5t-16.5 35.5t16.5 35.5t45.5 12.5q62 0 62 -48t-62 -48z
M222 550q-62 0 -62 48t62 48q61 0 61 -48t-61 -48z" />
    <glyph glyph-name="i.loclTRK" horiz-adv-x="255" 
d="M127 -7q-30 0 -46 18t-16 50v367q0 68 62 68q63 0 63 -68v-367q0 -32 -16 -50t-47 -18zM127 593q-65 0 -65 63q0 62 65 62q66 0 66 -62q0 -63 -66 -63z" />
    <glyph glyph-name="uni1ECB" unicode="&#x1ecb;" horiz-adv-x="255" 
d="M127 589q-35 0 -54.5 17.5t-19.5 48.5q0 32 19.5 49t54.5 17q74 0 74 -66t-74 -66zM127 -7q-30 0 -46 18t-16 50v367q0 68 62 68q63 0 63 -68v-367q0 -32 -16 -50t-47 -18zM127 -209q-65 0 -65 63q0 62 65 62q66 0 66 -62q0 -63 -66 -63z" />
    <glyph glyph-name="igrave" unicode="&#xec;" horiz-adv-x="255" 
d="M127 -7q-30 0 -46 18t-16 50v367q0 68 62 68q63 0 63 -68v-367q0 -32 -16 -50t-47 -18zM81 560l-97 140q-14 21 -7 39t25 28t38 6.5t32 -26.5l75 -149q8 -16 3 -29t-18 -20t-27 -5t-24 16z" />
    <glyph glyph-name="uni1EC9" unicode="&#x1ec9;" horiz-adv-x="255" 
d="M127 -7q-30 0 -46 18t-16 50v367q0 68 62 68q63 0 63 -68v-367q0 -32 -16 -50t-47 -18zM127 546q-38 0 -38 27q0 22 8.5 36.5t19.5 25t19.5 20t8.5 22.5q0 25 -40 25q-8 0 -17 -1t-19 -4q-17 -5 -26.5 -2.5t-14.5 15.5q-11 29 21 42q18 7 39.5 10t44.5 3q50 0 78.5 -18.5
t28.5 -53.5q0 -25 -11.5 -40.5t-26 -26.5t-26 -23.5t-11.5 -31.5q0 -25 -38 -25z" />
    <glyph glyph-name="uni020B" unicode="&#x20b;" horiz-adv-x="255" 
d="M127 -7q-30 0 -46 18t-16 50v367q0 68 62 68q63 0 63 -68v-367q0 -32 -16 -50t-47 -18zM-4 549q-16 1 -25.5 13.5t-6.5 32.5q10 67 51.5 111.5t111.5 44.5q71 0 112 -44.5t51 -111.5q3 -20 -6 -32.5t-26 -13.5q-35 -2 -41 36q-7 45 -31.5 67.5t-58.5 22.5t-58 -22.5
t-32 -67.5q-6 -38 -41 -36z" />
    <glyph glyph-name="imacron" unicode="&#x12b;" horiz-adv-x="255" 
d="M127 -7q-30 0 -46 18t-16 50v367q0 68 62 68q63 0 63 -68v-367q0 -32 -16 -50t-47 -18zM4 616q-39 0 -39 37t39 37h247q39 0 39 -37t-39 -37h-247z" />
    <glyph glyph-name="iogonek" unicode="&#x12f;" horiz-adv-x="255" 
d="M127 589q-35 0 -54.5 17.5t-19.5 48.5q0 32 19.5 49t54.5 17q74 0 74 -66t-74 -66zM143 -195q-55 0 -86.5 28t-31.5 76q0 30 14.5 57t39.5 47q-14 18 -14 48v367q0 68 62 68q63 0 63 -68v-367q0 -46 -34 -65q-20 -12 -36 -30.5t-16 -42.5q0 -25 16 -38t40 -13q15 0 30 4
q24 7 34 -6t6 -30.5t-24 -25.5q-16 -6 -32.5 -7.5t-30.5 -1.5z" />
    <glyph glyph-name="itilde" unicode="&#x129;" horiz-adv-x="255" 
d="M127 -7q-30 0 -46 18t-16 50v367q0 68 62 68q63 0 63 -68v-367q0 -32 -16 -50t-47 -18zM-36 581q-15 1 -23 10t-4 28q5 28 18.5 54.5t37.5 44.5t60 18q25 0 44 -10t35 -23t32 -23t35 -10q21 0 36.5 14.5t19.5 36.5q5 23 35 22q15 -1 23 -10t4 -28q-5 -27 -19 -54
t-37.5 -45t-59.5 -18q-25 0 -44 10t-35.5 23t-32.5 23t-34 10q-21 0 -36 -14t-20 -37t-35 -22z" />
    <glyph glyph-name="j" unicode="j" horiz-adv-x="259" 
d="M131 589q-35 0 -54.5 17.5t-19.5 48.5q0 32 19.5 49t54.5 17q74 0 74 -66t-74 -66zM5 -189q-28 -2 -42.5 10.5t-16.5 30.5t7.5 33t29.5 17q45 4 65.5 25.5t20.5 65.5v441q0 63 63 63q62 0 62 -63v-430q0 -97 -46 -141t-143 -52z" />
    <glyph glyph-name="uni0237" unicode="&#x237;" horiz-adv-x="259" 
d="M5 -189q-28 -2 -42.5 10.5t-16.5 30.5t7.5 33t29.5 17q45 4 65.5 25.5t20.5 65.5v441q0 63 63 63q62 0 62 -63v-430q0 -97 -46 -141t-143 -52z" />
    <glyph glyph-name="jcircumflex" unicode="&#x135;" horiz-adv-x="259" 
d="M5 -189q-28 -2 -42.5 10.5t-16.5 30.5t7.5 33t29.5 17q45 4 65.5 25.5t20.5 65.5v441q0 63 63 63q62 0 62 -63v-430q0 -97 -46 -141t-143 -52zM273 597q9 -16 4 -29t-17 -19.5t-25.5 -4.5t-22.5 16l-81 126l-81 -126q-9 -14 -22.5 -16t-25.5 4.5t-17 19.5t4 29l72 132
q24 45 70 45q47 0 71 -45z" />
    <glyph glyph-name="k" unicode="k" horiz-adv-x="536" 
d="M127 -8q-62 0 -62 64v594q0 63 62 63q63 0 63 -63v-369h2l165 174q20 20 35 31t41 11t39.5 -13.5t13.5 -32.5t-18 -38l-150 -158l167 -180q18 -19 16.5 -38.5t-16.5 -32t-38 -12.5q-28 0 -44.5 11t-36.5 33l-174 182h-2v-162q0 -64 -63 -64z" />
    <glyph glyph-name="uni01E9" unicode="&#x1e9;" horiz-adv-x="536" 
d="M127 -8q-62 0 -62 64v594q0 63 62 63q63 0 63 -63v-369h2l165 174q20 20 35 31t41 11t39.5 -13.5t13.5 -32.5t-18 -38l-150 -158l167 -180q18 -19 16.5 -38.5t-16.5 -32t-38 -12.5q-28 0 -44.5 11t-36.5 33l-174 182h-2v-162q0 -64 -63 -64zM294 754q-46 0 -73 39
l-73 102q-10 14 -6.5 27t15.5 20.5t26.5 6t26.5 -15.5l84 -98l85 98q16 19 35.5 16t29.5 -18.5t-4 -35.5l-72 -102q-27 -39 -74 -39z" />
    <glyph glyph-name="uni0137" unicode="&#x137;" horiz-adv-x="536" 
d="M127 -8q-62 0 -62 64v594q0 63 62 63q63 0 63 -63v-369h2l165 174q20 20 35 31t41 11t39.5 -13.5t13.5 -32.5t-18 -38l-150 -158l167 -180q18 -19 16.5 -38.5t-16.5 -32t-38 -12.5q-28 0 -44.5 11t-36.5 33l-174 182h-2v-162q0 -64 -63 -64zM294 -260q-13 -16 -29.5 -14
t-24 15.5t6.5 33.5q12 18 17 41q-64 3 -64 59q0 58 67 58q68 0 68 -69q0 -31 -10 -64.5t-31 -59.5z" />
    <glyph glyph-name="kgreenlandic" unicode="&#x138;" horiz-adv-x="536" 
d="M127 -8q-62 0 -62 64v378q0 63 62 63q63 0 63 -63v-153h2l165 174q20 20 35 31t41 11t39.5 -13.5t13.5 -32.5t-18 -38l-150 -158l167 -180q18 -19 16.5 -38.5t-16.5 -32t-38 -12.5q-28 0 -44.5 11t-36.5 33l-174 182h-2v-162q0 -64 -63 -64z" />
    <glyph glyph-name="l" unicode="l" horiz-adv-x="319" 
d="M232 -10q-167 0 -167 187v473q0 63 62 63q63 0 63 -63v-467q0 -90 75 -90q8 0 15 0.5t14 1.5q14 2 19 -7.5t5 -38.5q0 -25 -10 -39t-33 -17q-21 -3 -43 -3z" />
    <glyph glyph-name="lacute" unicode="&#x13a;" horiz-adv-x="319" 
d="M232 -10q-167 0 -167 187v473q0 63 62 63q63 0 63 -63v-467q0 -90 75 -90q8 0 15 0.5t14 1.5q14 2 19 -7.5t5 -38.5q0 -25 -10 -39t-33 -17q-21 -3 -43 -3zM178 771q-12 -13 -26.5 -13.5t-26 8t-15 21.5t5.5 27l78 115q14 21 34 22t36.5 -10.5t21 -29t-11.5 -35.5z" />
    <glyph glyph-name="lcaron" unicode="&#x13e;" horiz-adv-x="319" 
d="M232 -10q-167 0 -167 187v473q0 63 62 63q63 0 63 -63v-467q0 -90 75 -90q8 0 15 0.5t14 1.5q14 2 19 -7.5t5 -38.5q0 -25 -10 -39t-33 -17q-21 -3 -43 -3zM259 506q-29 0 -29 31v134q0 42 42 42q43 0 37 -44l-18 -134q-5 -29 -32 -29z" />
    <glyph glyph-name="uni013C" unicode="&#x13c;" horiz-adv-x="319" 
d="M232 -10q-167 0 -167 187v473q0 63 62 63q63 0 63 -63v-467q0 -90 75 -90q8 0 15 0.5t14 1.5q14 2 19 -7.5t5 -38.5q0 -25 -10 -39t-33 -17q-21 -3 -43 -3zM218 -260q-13 -16 -29.5 -14t-24 15.5t6.5 33.5q12 18 17 41q-64 3 -64 59q0 58 67 58q68 0 68 -69
q0 -31 -10 -64.5t-31 -59.5z" />
    <glyph glyph-name="ldot" unicode="&#x140;" horiz-adv-x="386" 
d="M232 -10q-167 0 -167 187v473q0 63 62 63q63 0 63 -63v-467q0 -90 75 -90q8 0 15 0.5t14 1.5q14 2 19 -7.5t5 -38.5q0 -25 -10 -39t-33 -17q-21 -3 -43 -3zM322 278q-34 0 -54.5 21t-20.5 53q0 33 20.5 53.5t54.5 20.5q35 0 54.5 -20.5t19.5 -53.5q0 -32 -19.5 -53
t-54.5 -21z" />
    <glyph glyph-name="uni1E37" unicode="&#x1e37;" horiz-adv-x="319" 
d="M232 -10q-167 0 -167 187v473q0 63 62 63q63 0 63 -63v-467q0 -90 75 -90q8 0 15 0.5t14 1.5q14 2 19 -7.5t5 -38.5q0 -25 -10 -39t-33 -17q-21 -3 -43 -3zM192 -209q-65 0 -65 63q0 62 65 62q66 0 66 -62q0 -63 -66 -63z" />
    <glyph glyph-name="uni01C9" unicode="&#x1c9;" horiz-adv-x="578" 
d="M232 -10q-167 0 -167 187v473q0 63 62 63q63 0 63 -63v-467q0 -90 75 -90q8 0 15 0.5t14 1.5q14 2 19 -7.5t5 -38.5q0 -25 -10 -39t-33 -17q-21 -3 -43 -3zM450 589q-35 0 -54.5 17.5t-19.5 48.5q0 32 19.5 49t54.5 17q74 0 74 -66t-74 -66zM324 -189q-28 -2 -42.5 10.5
t-16.5 30.5t7.5 33t29.5 17q45 4 65.5 25.5t20.5 65.5v441q0 63 63 63q62 0 62 -63v-430q0 -97 -46 -141t-143 -52z" />
    <glyph glyph-name="uni1E3B" unicode="&#x1e3b;" horiz-adv-x="319" 
d="M232 -10q-167 0 -167 187v473q0 63 62 63q63 0 63 -63v-467q0 -90 75 -90q8 0 15 0.5t14 1.5q14 2 19 -7.5t5 -38.5q0 -25 -10 -39t-33 -17q-21 -3 -43 -3zM69 -165q-39 0 -39 37t39 37h247q39 0 39 -37t-39 -37h-247z" />
    <glyph glyph-name="lslash" unicode="&#x142;" horiz-adv-x="319" 
d="M232 -10q-167 0 -167 187v473q0 63 62 63q63 0 63 -63v-467q0 -90 75 -90q8 0 15 0.5t14 1.5q14 2 19 -7.5t5 -38.5q0 -25 -10 -39t-33 -17q-21 -3 -43 -3zM47 248q-24 -13 -43 -7.5t-28.5 22.5t-5 36.5t27.5 32.5l231 134q24 14 43 8t28.5 -23t5 -36t-27.5 -33z" />
    <glyph glyph-name="m" unicode="m" horiz-adv-x="877" 
d="M129 -8q-62 0 -62 64v378q0 63 61 63t61 -63v-20q22 40 61 62.5t90 22.5q110 0 144 -96q23 45 66 70.5t98 25.5q165 0 165 -201v-242q0 -64 -63 -64q-62 0 -62 64v237q0 56 -18.5 82t-62.5 26q-49 0 -77 -34.5t-28 -95.5v-215q0 -64 -62 -64q-63 0 -63 64v237
q0 56 -18.5 82t-61.5 26q-49 0 -77 -34.5t-28 -95.5v-215q0 -64 -63 -64z" />
    <glyph glyph-name="uni1E43" unicode="&#x1e43;" horiz-adv-x="877" 
d="M129 -8q-62 0 -62 64v378q0 63 61 63t61 -63v-20q22 40 61 62.5t90 22.5q110 0 144 -96q23 45 66 70.5t98 25.5q165 0 165 -201v-242q0 -64 -63 -64q-62 0 -62 64v237q0 56 -18.5 82t-62.5 26q-49 0 -77 -34.5t-28 -95.5v-215q0 -64 -62 -64q-63 0 -63 64v237
q0 56 -18.5 82t-61.5 26q-49 0 -77 -34.5t-28 -95.5v-215q0 -64 -63 -64zM440 -209q-65 0 -65 63q0 62 65 62q66 0 66 -62q0 -63 -66 -63z" />
    <glyph glyph-name="n" unicode="n" horiz-adv-x="585" 
d="M127 -8q-62 0 -62 64v378q0 63 61 63t61 -63v-21q25 42 67.5 64t95.5 22q173 0 173 -201v-242q0 -64 -62 -64q-63 0 -63 64v236q0 57 -21.5 83t-66.5 26q-55 0 -87.5 -34.5t-32.5 -91.5v-219q0 -64 -63 -64z" />
    <glyph glyph-name="nacute" unicode="&#x144;" horiz-adv-x="585" 
d="M127 -8q-62 0 -62 64v378q0 63 61 63t61 -63v-21q25 42 67.5 64t95.5 22q173 0 173 -201v-242q0 -64 -62 -64q-63 0 -63 64v236q0 57 -21.5 83t-66.5 26q-55 0 -87.5 -34.5t-32.5 -91.5v-219q0 -64 -63 -64zM341 560q-10 -14 -24 -16t-27 5t-18.5 20t2.5 29l76 149
q11 23 31 26.5t38.5 -6.5t25.5 -28.5t-7 -38.5z" />
    <glyph glyph-name="napostrophe" unicode="&#x149;" horiz-adv-x="585" 
d="M65 583q-13 -16 -29.5 -14.5t-24 15t6.5 33.5q12 19 17 41q-64 3 -64 59q0 28 17.5 43.5t49.5 15.5q68 0 68 -69q0 -31 -10 -65t-31 -59zM127 -8q-62 0 -62 64v378q0 63 61 63t61 -63v-21q25 42 67.5 64t95.5 22q173 0 173 -201v-242q0 -64 -62 -64q-63 0 -63 64v236
q0 57 -21.5 83t-66.5 26q-55 0 -87.5 -34.5t-32.5 -91.5v-219q0 -64 -63 -64z" />
    <glyph glyph-name="ncaron" unicode="&#x148;" horiz-adv-x="585" 
d="M127 -8q-62 0 -62 64v378q0 63 61 63t61 -63v-21q25 42 67.5 64t95.5 22q173 0 173 -201v-242q0 -64 -62 -64q-63 0 -63 64v236q0 57 -21.5 83t-66.5 26q-55 0 -87.5 -34.5t-32.5 -91.5v-219q0 -64 -63 -64zM294 536q-45 0 -70 47l-72 131q-9 16 -4 29t17 19.5t25.5 4.5
t22.5 -16l81 -126l81 126q9 14 22.5 16t25.5 -4.5t17 -19.5t-4 -29l-71 -131q-25 -47 -71 -47z" />
    <glyph glyph-name="uni0146" unicode="&#x146;" horiz-adv-x="585" 
d="M127 -8q-62 0 -62 64v378q0 63 61 63t61 -63v-21q25 42 67.5 64t95.5 22q173 0 173 -201v-242q0 -64 -62 -64q-63 0 -63 64v236q0 57 -21.5 83t-66.5 26q-55 0 -87.5 -34.5t-32.5 -91.5v-219q0 -64 -63 -64zM320 -260q-13 -16 -29.5 -14t-24 15.5t6.5 33.5q12 18 17 41
q-64 3 -64 59q0 58 67 58q68 0 68 -69q0 -31 -10 -64.5t-31 -59.5z" />
    <glyph glyph-name="uni1E45" unicode="&#x1e45;" horiz-adv-x="585" 
d="M127 -8q-62 0 -62 64v378q0 63 61 63t61 -63v-21q25 42 67.5 64t95.5 22q173 0 173 -201v-242q0 -64 -62 -64q-63 0 -63 64v236q0 57 -21.5 83t-66.5 26q-55 0 -87.5 -34.5t-32.5 -91.5v-219q0 -64 -63 -64zM294 593q-65 0 -65 63q0 62 65 62q66 0 66 -62q0 -63 -66 -63z
" />
    <glyph glyph-name="uni1E47" unicode="&#x1e47;" horiz-adv-x="585" 
d="M127 -8q-62 0 -62 64v378q0 63 61 63t61 -63v-21q25 42 67.5 64t95.5 22q173 0 173 -201v-242q0 -64 -62 -64q-63 0 -63 64v236q0 57 -21.5 83t-66.5 26q-55 0 -87.5 -34.5t-32.5 -91.5v-219q0 -64 -63 -64zM294 -209q-65 0 -65 63q0 62 65 62q66 0 66 -62q0 -63 -66 -63
z" />
    <glyph glyph-name="eng" unicode="&#x14b;" horiz-adv-x="585" 
d="M326 -191q-28 -2 -42 10.5t-15.5 30.5t8.5 33t30 18q48 7 69.5 26.5t21.5 65.5v299q0 57 -21.5 83t-66.5 26q-55 0 -87.5 -34.5t-32.5 -91.5v-219q0 -64 -63 -64q-62 0 -62 64v378q0 63 61 63t61 -63v-21q25 42 67.5 64t95.5 22q173 0 173 -201v-294q0 -96 -46.5 -141.5
t-150.5 -53.5z" />
    <glyph glyph-name="uni01CC" unicode="&#x1cc;" horiz-adv-x="844" 
d="M127 -8q-62 0 -62 64v378q0 63 61 63t61 -63v-21q25 42 67.5 64t95.5 22q173 0 173 -201v-242q0 -64 -62 -64q-63 0 -63 64v236q0 57 -21.5 83t-66.5 26q-55 0 -87.5 -34.5t-32.5 -91.5v-219q0 -64 -63 -64zM716 589q-35 0 -54.5 17.5t-19.5 48.5q0 32 19.5 49t54.5 17
q74 0 74 -66t-74 -66zM590 -189q-28 -2 -42.5 10.5t-16.5 30.5t7.5 33t29.5 17q45 4 65.5 25.5t20.5 65.5v441q0 63 63 63q62 0 62 -63v-430q0 -97 -46 -141t-143 -52z" />
    <glyph glyph-name="uni1E49" unicode="&#x1e49;" horiz-adv-x="585" 
d="M127 -8q-62 0 -62 64v378q0 63 61 63t61 -63v-21q25 42 67.5 64t95.5 22q173 0 173 -201v-242q0 -64 -62 -64q-63 0 -63 64v236q0 57 -21.5 83t-66.5 26q-55 0 -87.5 -34.5t-32.5 -91.5v-219q0 -64 -63 -64zM171 -165q-39 0 -39 37t39 37h247q39 0 39 -37t-39 -37h-247z
" />
    <glyph glyph-name="ntilde" unicode="&#xf1;" horiz-adv-x="585" 
d="M127 -8q-62 0 -62 64v378q0 63 61 63t61 -63v-21q25 42 67.5 64t95.5 22q173 0 173 -201v-242q0 -64 -62 -64q-63 0 -63 64v236q0 57 -21.5 83t-66.5 26q-55 0 -87.5 -34.5t-32.5 -91.5v-219q0 -64 -63 -64zM131 581q-15 1 -23 10t-4 28q5 28 18.5 54.5t37.5 44.5t60 18
q25 0 44 -10t35 -23t32 -23t35 -10q21 0 36.5 14.5t19.5 36.5q5 23 35 22q15 -1 23 -10t4 -28q-5 -27 -19 -54t-37.5 -45t-59.5 -18q-25 0 -44 10t-35.5 23t-32.5 23t-34 10q-21 0 -36 -14t-20 -37t-35 -22z" />
    <glyph glyph-name="o" unicode="o" horiz-adv-x="576" 
d="M288 -10q-76 0 -132 31t-87 88.5t-31 135.5t31 135t87 88t132 31t132 -31t87 -88t31 -135t-31 -135.5t-87 -88.5t-132 -31zM288 85q56 0 90 40.5t34 119.5q0 80 -34 119.5t-90 39.5t-90 -39.5t-34 -119.5q0 -79 34 -119.5t90 -40.5z" />
    <glyph glyph-name="oacute" unicode="&#xf3;" horiz-adv-x="576" 
d="M288 -10q-76 0 -132 31t-87 88.5t-31 135.5t31 135t87 88t132 31t132 -31t87 -88t31 -135t-31 -135.5t-87 -88.5t-132 -31zM288 85q56 0 90 40.5t34 119.5q0 80 -34 119.5t-90 39.5t-90 -39.5t-34 -119.5q0 -79 34 -119.5t90 -40.5zM335 560q-10 -14 -24 -16t-27 5
t-18.5 20t2.5 29l76 149q11 23 31 26.5t38.5 -6.5t25.5 -28.5t-7 -38.5z" />
    <glyph glyph-name="obreve" unicode="&#x14f;" horiz-adv-x="576" 
d="M288 -10q-76 0 -132 31t-87 88.5t-31 135.5t31 135t87 88t132 31t132 -31t87 -88t31 -135t-31 -135.5t-87 -88.5t-132 -31zM288 85q56 0 90 40.5t34 119.5q0 80 -34 119.5t-90 39.5t-90 -39.5t-34 -119.5q0 -79 34 -119.5t90 -40.5zM288 551q-70 0 -111 44.5t-52 111.5
q-3 20 6.5 32.5t25.5 13.5q35 2 41 -36q8 -45 32 -67.5t58 -22.5t58.5 22.5t31.5 67.5q6 38 41 36q17 -1 26 -13.5t6 -32.5q-10 -67 -51 -111.5t-112 -44.5z" />
    <glyph glyph-name="ocircumflex" unicode="&#xf4;" horiz-adv-x="576" 
d="M288 -10q-76 0 -132 31t-87 88.5t-31 135.5t31 135t87 88t132 31t132 -31t87 -88t31 -135t-31 -135.5t-87 -88.5t-132 -31zM288 85q56 0 90 40.5t34 119.5q0 80 -34 119.5t-90 39.5t-90 -39.5t-34 -119.5q0 -79 34 -119.5t90 -40.5zM430 597q9 -16 4 -29t-17 -19.5
t-25.5 -4.5t-22.5 16l-81 126l-81 -126q-9 -14 -22.5 -16t-25.5 4.5t-17 19.5t4 29l72 132q24 45 70 45q47 0 71 -45z" />
    <glyph glyph-name="uni1ED1" unicode="&#x1ed1;" horiz-adv-x="576" 
d="M288 -10q-76 0 -132 31t-87 88.5t-31 135.5t31 135t87 88t132 31t132 -31t87 -88t31 -135t-31 -135.5t-87 -88.5t-132 -31zM288 85q56 0 90 40.5t34 119.5q0 80 -34 119.5t-90 39.5t-90 -39.5t-34 -119.5q0 -79 34 -119.5t90 -40.5zM463 654q-12 -15 -28 -13.5
t-24.5 15.5t2.5 33l62 110q11 20 28 22.5t31.5 -6t19 -24.5t-9.5 -34zM207 558q-16 -18 -34 -15.5t-26.5 18t4.5 34.5l65 97q15 22 32.5 30.5t39.5 8.5q23 0 40.5 -8.5t31.5 -30.5l65 -97q13 -19 5 -34.5t-25.5 -18t-34.5 15.5l-82 91z" />
    <glyph glyph-name="uni1ED9" unicode="&#x1ed9;" horiz-adv-x="576" 
d="M288 -10q-76 0 -132 31t-87 88.5t-31 135.5t31 135t87 88t132 31t132 -31t87 -88t31 -135t-31 -135.5t-87 -88.5t-132 -31zM288 85q56 0 90 40.5t34 119.5q0 80 -34 119.5t-90 39.5t-90 -39.5t-34 -119.5q0 -79 34 -119.5t90 -40.5zM288 -209q-65 0 -65 63q0 62 65 62
q66 0 66 -62q0 -63 -66 -63zM430 597q9 -16 4 -29t-17 -19.5t-25.5 -4.5t-22.5 16l-81 126l-81 -126q-9 -14 -22.5 -16t-25.5 4.5t-17 19.5t4 29l72 132q24 45 70 45q47 0 71 -45z" />
    <glyph glyph-name="uni1ED3" unicode="&#x1ed3;" horiz-adv-x="576" 
d="M288 -10q-76 0 -132 31t-87 88.5t-31 135.5t31 135t87 88t132 31t132 -31t87 -88t31 -135t-31 -135.5t-87 -88.5t-132 -31zM288 85q56 0 90 40.5t34 119.5q0 80 -34 119.5t-90 39.5t-90 -39.5t-34 -119.5q0 -79 34 -119.5t90 -40.5zM442 654l-81 103q-14 18 -9.5 34
t19 24.5t31.5 6t28 -22.5l62 -110q11 -19 2.5 -33t-24.5 -15.5t-28 13.5zM207 558q-16 -18 -34 -15.5t-26.5 18t4.5 34.5l65 97q15 22 32.5 30.5t39.5 8.5q23 0 40.5 -8.5t31.5 -30.5l65 -97q13 -19 5 -34.5t-25.5 -18t-34.5 15.5l-82 91z" />
    <glyph glyph-name="uni1ED5" unicode="&#x1ed5;" horiz-adv-x="576" 
d="M288 -10q-76 0 -132 31t-87 88.5t-31 135.5t31 135t87 88t132 31t132 -31t87 -88t31 -135t-31 -135.5t-87 -88.5t-132 -31zM288 85q56 0 90 40.5t34 119.5q0 80 -34 119.5t-90 39.5t-90 -39.5t-34 -119.5q0 -79 34 -119.5t90 -40.5zM449 654q-13 -7 -26 -2.5t-16.5 15.5
t8.5 21q16 13 25.5 24t9.5 24q0 24 -37 24q-7 0 -15.5 -1t-17.5 -3q-28 -7 -36 15q-8 25 21 34q17 5 35.5 7t38.5 2q44 0 68.5 -14t24.5 -45q0 -20 -13 -39.5t-32 -35t-38 -26.5zM207 558q-16 -18 -34 -15.5t-26.5 18t4.5 34.5l65 97q15 22 32.5 30.5t39.5 8.5
q23 0 40.5 -8.5t31.5 -30.5l65 -97q13 -19 5 -34.5t-25.5 -18t-34.5 15.5l-82 91z" />
    <glyph glyph-name="uni1ED7" unicode="&#x1ed7;" horiz-adv-x="576" 
d="M288 -10q-76 0 -132 31t-87 88.5t-31 135.5t31 135t87 88t132 31t132 -31t87 -88t31 -135t-31 -135.5t-87 -88.5t-132 -31zM288 85q56 0 90 40.5t34 119.5q0 80 -34 119.5t-90 39.5t-90 -39.5t-34 -119.5q0 -79 34 -119.5t90 -40.5zM147 710q-14 1 -21.5 11t-3.5 26
q10 37 36.5 56t63.5 19q27 0 49 -11t41.5 -22t38.5 -11q15 0 27 5.5t17 18.5q9 23 35 22q14 -1 22 -10.5t3 -26.5q-10 -37 -36.5 -56t-63.5 -19q-27 0 -49.5 11t-41.5 22t-38 11q-15 0 -27 -5.5t-17 -18.5q-9 -23 -35 -22zM198 552q-16 -13 -31.5 -8.5t-21 18t6.5 27.5
l59 70q17 20 36 27.5t41 7.5q23 0 42.5 -7.5t35.5 -27.5l58 -70q12 -14 6.5 -28t-20.5 -18.5t-32 9.5l-90 74z" />
    <glyph glyph-name="uni020D" unicode="&#x20d;" horiz-adv-x="576" 
d="M288 -10q-76 0 -132 31t-87 88.5t-31 135.5t31 135t87 88t132 31t132 -31t87 -88t31 -135t-31 -135.5t-87 -88.5t-132 -31zM288 85q56 0 90 40.5t34 119.5q0 80 -34 119.5t-90 39.5t-90 -39.5t-34 -119.5q0 -79 34 -119.5t90 -40.5zM179 564l-65 148q-10 24 -0.5 39.5
t29 20.5t37.5 -3t24 -33l38 -153q5 -20 -8 -31t-30 -8.5t-25 20.5zM327 564l-65 148q-10 24 0 39.5t29 20.5t37.5 -3t24.5 -33l37 -153q5 -20 -8 -31t-30 -8.5t-25 20.5z" />
    <glyph glyph-name="odieresis" unicode="&#xf6;" horiz-adv-x="576" 
d="M288 -10q-76 0 -132 31t-87 88.5t-31 135.5t31 135t87 88t132 31t132 -31t87 -88t31 -135t-31 -135.5t-87 -88.5t-132 -31zM288 85q56 0 90 40.5t34 119.5q0 80 -34 119.5t-90 39.5t-90 -39.5t-34 -119.5q0 -79 34 -119.5t90 -40.5zM383 593q-62 0 -62 62q0 61 62 61
q61 0 61 -61q0 -62 -61 -62zM194 593q-29 0 -45.5 16t-16.5 46q0 29 16.5 45t45.5 16q62 0 62 -61q0 -62 -62 -62z" />
    <glyph glyph-name="uni022B" unicode="&#x22b;" horiz-adv-x="576" 
d="M288 -10q-76 0 -132 31t-87 88.5t-31 135.5t31 135t87 88t132 31t132 -31t87 -88t31 -135t-31 -135.5t-87 -88.5t-132 -31zM288 85q56 0 90 40.5t34 119.5q0 80 -34 119.5t-90 39.5t-90 -39.5t-34 -119.5q0 -79 34 -119.5t90 -40.5zM168 708q-42 0 -42 37t42 37h240
q42 0 42 -37t-42 -37h-240zM194 567q-29 0 -45.5 13t-16.5 36t16.5 35.5t45.5 12.5q62 0 62 -48q0 -49 -62 -49zM383 567q-62 0 -62 49q0 48 62 48q61 0 61 -48q0 -49 -61 -49z" />
    <glyph glyph-name="uni0231" unicode="&#x231;" horiz-adv-x="576" 
d="M288 -10q-76 0 -132 31t-87 88.5t-31 135.5t31 135t87 88t132 31t132 -31t87 -88t31 -135t-31 -135.5t-87 -88.5t-132 -31zM288 85q56 0 90 40.5t34 119.5q0 80 -34 119.5t-90 39.5t-90 -39.5t-34 -119.5q0 -79 34 -119.5t90 -40.5zM168 708q-42 0 -42 37t42 37h240
q42 0 42 -37t-42 -37h-240zM289 567q-29 0 -45.5 13t-16.5 36t16.5 35.5t45.5 12.5q62 0 62 -48q0 -49 -62 -49z" />
    <glyph glyph-name="uni1ECD" unicode="&#x1ecd;" horiz-adv-x="576" 
d="M288 -10q-76 0 -132 31t-87 88.5t-31 135.5t31 135t87 88t132 31t132 -31t87 -88t31 -135t-31 -135.5t-87 -88.5t-132 -31zM288 85q56 0 90 40.5t34 119.5q0 80 -34 119.5t-90 39.5t-90 -39.5t-34 -119.5q0 -79 34 -119.5t90 -40.5zM288 -209q-65 0 -65 63q0 62 65 62
q66 0 66 -62q0 -63 -66 -63z" />
    <glyph glyph-name="ograve" unicode="&#xf2;" horiz-adv-x="576" 
d="M288 -10q-76 0 -132 31t-87 88.5t-31 135.5t31 135t87 88t132 31t132 -31t87 -88t31 -135t-31 -135.5t-87 -88.5t-132 -31zM288 85q56 0 90 40.5t34 119.5q0 80 -34 119.5t-90 39.5t-90 -39.5t-34 -119.5q0 -79 34 -119.5t90 -40.5zM242 560l-97 140q-14 21 -7 39t25 28
t38 6.5t32 -26.5l75 -149q8 -16 3 -29t-18 -20t-27 -5t-24 16z" />
    <glyph glyph-name="uni1ECF" unicode="&#x1ecf;" horiz-adv-x="576" 
d="M288 -10q-76 0 -132 31t-87 88.5t-31 135.5t31 135t87 88t132 31t132 -31t87 -88t31 -135t-31 -135.5t-87 -88.5t-132 -31zM288 85q56 0 90 40.5t34 119.5q0 80 -34 119.5t-90 39.5t-90 -39.5t-34 -119.5q0 -79 34 -119.5t90 -40.5zM288 546q-38 0 -38 27q0 22 8.5 36.5
t19.5 25t19.5 20t8.5 22.5q0 25 -40 25q-8 0 -17 -1t-19 -4q-17 -5 -26.5 -2.5t-14.5 15.5q-11 29 21 42q18 7 39.5 10t44.5 3q50 0 78.5 -18.5t28.5 -53.5q0 -25 -11.5 -40.5t-26 -26.5t-26 -23.5t-11.5 -31.5q0 -25 -38 -25z" />
    <glyph glyph-name="ohorn" unicode="&#x1a1;" horiz-adv-x="576" 
d="M288 -10q-76 0 -132 31t-87 88.5t-31 135.5t31 135t87 88t132 31t132 -31t87 -88t31 -135t-31 -135.5t-87 -88.5t-132 -31zM288 85q56 0 90 40.5t34 119.5q0 80 -34 119.5t-90 39.5t-90 -39.5t-34 -119.5q0 -79 34 -119.5t90 -40.5zM418 425l-71 45v19q56 1 76.5 23.5
t20.5 65.5q0 41 55 41q54 0 54 -40q0 -65 -36.5 -106.5t-98.5 -47.5z" />
    <glyph glyph-name="uni1EDB" unicode="&#x1edb;" horiz-adv-x="576" 
d="M288 -10q-76 0 -132 31t-87 88.5t-31 135.5t31 135t87 88t132 31t132 -31t87 -88t31 -135t-31 -135.5t-87 -88.5t-132 -31zM288 85q56 0 90 40.5t34 119.5q0 80 -34 119.5t-90 39.5t-90 -39.5t-34 -119.5q0 -79 34 -119.5t90 -40.5zM418 425l-71 45v19q56 1 76.5 23.5
t20.5 65.5q0 41 55 41q54 0 54 -40q0 -65 -36.5 -106.5t-98.5 -47.5zM335 560q-10 -14 -24 -16t-27 5t-18.5 20t2.5 29l76 149q11 23 31 26.5t38.5 -6.5t25.5 -28.5t-7 -38.5z" />
    <glyph glyph-name="uni1EE3" unicode="&#x1ee3;" horiz-adv-x="576" 
d="M288 -10q-76 0 -132 31t-87 88.5t-31 135.5t31 135t87 88t132 31t132 -31t87 -88t31 -135t-31 -135.5t-87 -88.5t-132 -31zM288 85q56 0 90 40.5t34 119.5q0 80 -34 119.5t-90 39.5t-90 -39.5t-34 -119.5q0 -79 34 -119.5t90 -40.5zM418 425l-71 45v19q56 1 76.5 23.5
t20.5 65.5q0 41 55 41q54 0 54 -40q0 -65 -36.5 -106.5t-98.5 -47.5zM288 -209q-65 0 -65 63q0 62 65 62q66 0 66 -62q0 -63 -66 -63z" />
    <glyph glyph-name="uni1EDD" unicode="&#x1edd;" horiz-adv-x="576" 
d="M288 -10q-76 0 -132 31t-87 88.5t-31 135.5t31 135t87 88t132 31t132 -31t87 -88t31 -135t-31 -135.5t-87 -88.5t-132 -31zM288 85q56 0 90 40.5t34 119.5q0 80 -34 119.5t-90 39.5t-90 -39.5t-34 -119.5q0 -79 34 -119.5t90 -40.5zM418 425l-71 45v19q56 1 76.5 23.5
t20.5 65.5q0 41 55 41q54 0 54 -40q0 -65 -36.5 -106.5t-98.5 -47.5zM242 560l-97 140q-14 21 -7 39t25 28t38 6.5t32 -26.5l75 -149q8 -16 3 -29t-18 -20t-27 -5t-24 16z" />
    <glyph glyph-name="uni1EDF" unicode="&#x1edf;" horiz-adv-x="576" 
d="M288 -10q-76 0 -132 31t-87 88.5t-31 135.5t31 135t87 88t132 31t132 -31t87 -88t31 -135t-31 -135.5t-87 -88.5t-132 -31zM288 85q56 0 90 40.5t34 119.5q0 80 -34 119.5t-90 39.5t-90 -39.5t-34 -119.5q0 -79 34 -119.5t90 -40.5zM418 425l-71 45v19q56 1 76.5 23.5
t20.5 65.5q0 41 55 41q54 0 54 -40q0 -65 -36.5 -106.5t-98.5 -47.5zM288 546q-38 0 -38 27q0 22 8.5 36.5t19.5 25t19.5 20t8.5 22.5q0 25 -40 25q-8 0 -17 -1t-19 -4q-17 -5 -26.5 -2.5t-14.5 15.5q-11 29 21 42q18 7 39.5 10t44.5 3q50 0 78.5 -18.5t28.5 -53.5
q0 -25 -11.5 -40.5t-26 -26.5t-26 -23.5t-11.5 -31.5q0 -25 -38 -25z" />
    <glyph glyph-name="uni1EE1" unicode="&#x1ee1;" horiz-adv-x="576" 
d="M288 -10q-76 0 -132 31t-87 88.5t-31 135.5t31 135t87 88t132 31t132 -31t87 -88t31 -135t-31 -135.5t-87 -88.5t-132 -31zM288 85q56 0 90 40.5t34 119.5q0 80 -34 119.5t-90 39.5t-90 -39.5t-34 -119.5q0 -79 34 -119.5t90 -40.5zM418 425l-71 45v19q56 1 76.5 23.5
t20.5 65.5q0 41 55 41q54 0 54 -40q0 -65 -36.5 -106.5t-98.5 -47.5zM127 581q-14 1 -22.5 11t-5.5 27q10 57 39 87t69 30q23 0 41 -10t33.5 -23t30 -23t31.5 -10q20 0 34 12.5t18 33.5q6 29 36 27q14 -1 22.5 -11t5.5 -27q-10 -57 -38 -87t-69 -30q-24 0 -42 10t-33 23
t-30 23t-32 10q-19 0 -33 -12.5t-19 -33.5q-6 -29 -36 -27z" />
    <glyph glyph-name="ohungarumlaut" unicode="&#x151;" horiz-adv-x="576" 
d="M288 -10q-76 0 -132 31t-87 88.5t-31 135.5t31 135t87 88t132 31t132 -31t87 -88t31 -135t-31 -135.5t-87 -88.5t-132 -31zM288 85q56 0 90 40.5t34 119.5q0 80 -34 119.5t-90 39.5t-90 -39.5t-34 -119.5q0 -79 34 -119.5t90 -40.5zM398 564q-8 -18 -25 -20.5t-30 8.5
t-8 31l37 153q6 25 24 33t37.5 3t29.5 -21t0 -39zM249 564q-8 -18 -25 -20.5t-30 8.5t-8 31l38 153q6 24 24 32.5t37 3.5t29 -21t0 -39z" />
    <glyph glyph-name="uni020F" unicode="&#x20f;" horiz-adv-x="576" 
d="M288 -10q-76 0 -132 31t-87 88.5t-31 135.5t31 135t87 88t132 31t132 -31t87 -88t31 -135t-31 -135.5t-87 -88.5t-132 -31zM288 85q56 0 90 40.5t34 119.5q0 80 -34 119.5t-90 39.5t-90 -39.5t-34 -119.5q0 -79 34 -119.5t90 -40.5zM157 549q-16 1 -25.5 13.5t-6.5 32.5
q10 67 51.5 111.5t111.5 44.5q71 0 112 -44.5t51 -111.5q3 -20 -6 -32.5t-26 -13.5q-35 -2 -41 36q-7 45 -31.5 67.5t-58.5 22.5t-58 -22.5t-32 -67.5q-6 -38 -41 -36z" />
    <glyph glyph-name="omacron" unicode="&#x14d;" horiz-adv-x="576" 
d="M288 -10q-76 0 -132 31t-87 88.5t-31 135.5t31 135t87 88t132 31t132 -31t87 -88t31 -135t-31 -135.5t-87 -88.5t-132 -31zM288 85q56 0 90 40.5t34 119.5q0 80 -34 119.5t-90 39.5t-90 -39.5t-34 -119.5q0 -79 34 -119.5t90 -40.5zM165 616q-39 0 -39 37t39 37h247
q39 0 39 -37t-39 -37h-247z" />
    <glyph glyph-name="uni1E53" unicode="&#x1e53;" horiz-adv-x="576" 
d="M288 -10q-76 0 -132 31t-87 88.5t-31 135.5t31 135t87 88t132 31t132 -31t87 -88t31 -135t-31 -135.5t-87 -88.5t-132 -31zM288 85q56 0 90 40.5t34 119.5q0 80 -34 119.5t-90 39.5t-90 -39.5t-34 -119.5q0 -79 34 -119.5t90 -40.5zM326 677q-14 -17 -32 -15t-27 16.5
t1 33.5l50 91q12 21 31.5 24.5t36 -6t22 -26.5t-11.5 -37zM168 567q-42 0 -42 37t42 37h240q42 0 42 -37t-42 -37h-240z" />
    <glyph glyph-name="uni1E51" unicode="&#x1e51;" horiz-adv-x="576" 
d="M288 -10q-76 0 -132 31t-87 88.5t-31 135.5t31 135t87 88t132 31t132 -31t87 -88t31 -135t-31 -135.5t-87 -88.5t-132 -31zM288 85q56 0 90 40.5t34 119.5q0 80 -34 119.5t-90 39.5t-90 -39.5t-34 -119.5q0 -79 34 -119.5t90 -40.5zM250 677l-70 81q-17 20 -11.5 37
t22 26.5t36 6t31.5 -24.5l50 -91q11 -19 1.5 -33.5t-27 -16.5t-32.5 15zM168 567q-42 0 -42 37t42 37h240q42 0 42 -37t-42 -37h-240z" />
    <glyph glyph-name="uni01EB" unicode="&#x1eb;" horiz-adv-x="576" 
d="M288 -10q-76 0 -132 31t-87 88.5t-31 135.5t31 135t87 88t132 31t132 -31t87 -88t31 -135t-31 -135.5t-87 -88.5t-132 -31zM288 85q56 0 90 40.5t34 119.5q0 80 -34 119.5t-90 39.5t-90 -39.5t-34 -119.5q0 -79 34 -119.5t90 -40.5zM326 -195q-55 0 -86.5 28t-31.5 76
q0 42 28 78t74 55l37 -42q-25 -10 -42.5 -30.5t-17.5 -46.5q0 -25 16 -38t40 -13q15 0 30 4q24 7 34 -6t6 -30.5t-24 -25.5q-16 -6 -32.5 -7.5t-30.5 -1.5z" />
    <glyph glyph-name="oslash" unicode="&#xf8;" horiz-adv-x="576" 
d="M171 -34q-10 -17 -25.5 -19.5t-29 5.5t-18.5 23t6 33l20 34q-41 33 -63.5 84.5t-22.5 118.5q0 78 31 135t87 88t132 31q51 0 95 -15l23 40q10 17 25.5 19t29 -6t19 -23t-5.5 -33l-21 -36q40 -32 62.5 -83t22.5 -117q0 -78 -31 -135.5t-87 -88.5t-132 -31q-51 0 -94 15z
M164 245q0 -60 21 -99l147 251q-20 7 -44 7q-56 0 -90 -39.5t-34 -119.5zM288 85q56 0 90 40.5t34 119.5q0 58 -20 97l-147 -250q20 -7 43 -7z" />
    <glyph glyph-name="oslashacute" unicode="&#x1ff;" horiz-adv-x="576" 
d="M171 -34q-10 -17 -25.5 -19.5t-29 5.5t-18.5 23t6 33l20 34q-41 33 -63.5 84.5t-22.5 118.5q0 78 31 135t87 88t132 31q51 0 95 -15l23 40q10 17 25.5 19t29 -6t19 -23t-5.5 -33l-21 -36q40 -32 62.5 -83t22.5 -117q0 -78 -31 -135.5t-87 -88.5t-132 -31q-51 0 -94 15z
M164 245q0 -60 21 -99l147 251q-20 7 -44 7q-56 0 -90 -39.5t-34 -119.5zM288 85q56 0 90 40.5t34 119.5q0 58 -20 97l-147 -250q20 -7 43 -7zM335 560q-10 -14 -24 -16t-27 5t-18.5 20t2.5 29l76 149q11 23 31 26.5t38.5 -6.5t25.5 -28.5t-7 -38.5z" />
    <glyph glyph-name="otilde" unicode="&#xf5;" horiz-adv-x="576" 
d="M288 -10q-76 0 -132 31t-87 88.5t-31 135.5t31 135t87 88t132 31t132 -31t87 -88t31 -135t-31 -135.5t-87 -88.5t-132 -31zM288 85q56 0 90 40.5t34 119.5q0 80 -34 119.5t-90 39.5t-90 -39.5t-34 -119.5q0 -79 34 -119.5t90 -40.5zM125 581q-15 1 -23 10t-4 28
q5 28 18.5 54.5t37.5 44.5t60 18q25 0 44 -10t35 -23t32 -23t35 -10q21 0 36.5 14.5t19.5 36.5q5 23 35 22q15 -1 23 -10t4 -28q-5 -27 -19 -54t-37.5 -45t-59.5 -18q-25 0 -44 10t-35.5 23t-32.5 23t-34 10q-21 0 -36 -14t-20 -37t-35 -22z" />
    <glyph glyph-name="uni1E4D" unicode="&#x1e4d;" horiz-adv-x="576" 
d="M288 -10q-76 0 -132 31t-87 88.5t-31 135.5t31 135t87 88t132 31t132 -31t87 -88t31 -135t-31 -135.5t-87 -88.5t-132 -31zM288 85q56 0 90 40.5t34 119.5q0 80 -34 119.5t-90 39.5t-90 -39.5t-34 -119.5q0 -79 34 -119.5t90 -40.5zM326 677q-14 -15 -31.5 -13
t-26.5 16.5t1 33.5l49 89q12 21 31.5 24t36.5 -6.5t22 -27t-12 -36.5zM147 549q-14 1 -21.5 11t-3.5 26q10 37 36.5 56t63.5 19q27 0 49 -11t41.5 -22t38.5 -11q15 0 27 5.5t17 18.5q9 23 35 22q14 -1 22 -10.5t3 -26.5q-10 -37 -36.5 -56t-63.5 -19q-27 0 -49.5 11
t-41.5 22t-38 11q-15 0 -27 -5.5t-17 -18.5q-9 -23 -35 -22z" />
    <glyph glyph-name="uni1E4F" unicode="&#x1e4f;" horiz-adv-x="576" 
d="M288 -10q-76 0 -132 31t-87 88.5t-31 135.5t31 135t87 88t132 31t132 -31t87 -88t31 -135t-31 -135.5t-87 -88.5t-132 -31zM288 85q56 0 90 40.5t34 119.5q0 80 -34 119.5t-90 39.5t-90 -39.5t-34 -119.5q0 -79 34 -119.5t90 -40.5zM194 693q-29 0 -45.5 12.5t-16.5 35.5
t16.5 35.5t45.5 12.5q62 0 62 -48t-62 -48zM383 693q-62 0 -62 48t62 48q61 0 61 -48t-61 -48zM147 549q-14 1 -21.5 11t-3.5 26q10 37 36.5 56t63.5 19q27 0 49 -11t41.5 -22t38.5 -11q15 0 27 5.5t17 18.5q9 23 35 22q14 -1 22 -10.5t3 -26.5q-10 -37 -36.5 -56t-63.5 -19
q-27 0 -49.5 11t-41.5 22t-38 11q-15 0 -27 -5.5t-17 -18.5q-9 -23 -35 -22z" />
    <glyph glyph-name="uni022D" unicode="&#x22d;" horiz-adv-x="576" 
d="M288 -10q-76 0 -132 31t-87 88.5t-31 135.5t31 135t87 88t132 31t132 -31t87 -88t31 -135t-31 -135.5t-87 -88.5t-132 -31zM288 85q56 0 90 40.5t34 119.5q0 80 -34 119.5t-90 39.5t-90 -39.5t-34 -119.5q0 -79 34 -119.5t90 -40.5zM168 708q-42 0 -42 37t42 37h240
q42 0 42 -37t-42 -37h-240zM147 549q-14 1 -21.5 11t-3.5 26q10 37 36.5 56t63.5 19q27 0 49 -11t41.5 -22t38.5 -11q15 0 27 5.5t17 18.5q9 23 35 22q14 -1 22 -10.5t3 -26.5q-10 -37 -36.5 -56t-63.5 -19q-27 0 -49.5 11t-41.5 22t-38 11q-15 0 -27 -5.5t-17 -18.5
q-9 -23 -35 -22z" />
    <glyph glyph-name="oe" unicode="&#x153;" horiz-adv-x="915" 
d="M284 -10q-74 0 -129.5 31t-86 88.5t-30.5 135.5t30.5 135t85.5 88t130 31q64 0 112 -25t78 -71q28 43 76 69.5t108 26.5q103 0 162.5 -66t59.5 -180q0 -37 -48 -37h-295q13 -131 143 -131q26 0 58.5 6.5t61.5 22.5q26 15 44 9.5t25.5 -21.5t2 -35.5t-28.5 -33.5
q-35 -22 -79.5 -32.5t-83.5 -10.5q-71 0 -125 25t-83 72q-30 -46 -77.5 -71.5t-110.5 -25.5zM660 414q-56 0 -86.5 -34t-36.5 -92h239q-4 61 -33.5 93.5t-82.5 32.5zM288 85q56 0 90 40.5t34 119.5q0 80 -34 119.5t-90 39.5t-90 -39.5t-34 -119.5q0 -79 34 -119.5t90 -40.5z
" />
    <glyph glyph-name="p" unicode="p" 
d="M127 -188q-62 0 -62 63v559q0 63 61 63q62 0 62 -63v-21q21 39 63 62.5t96 23.5q64 0 112.5 -31t75.5 -87.5t27 -135.5q0 -78 -27 -135.5t-75 -88.5t-113 -31q-52 0 -93.5 22.5t-63.5 60.5v-198q0 -63 -63 -63zM312 85q56 0 90 40.5t34 119.5q0 80 -34 119.5t-90 39.5
t-90 -39.5t-34 -119.5q0 -79 34 -119.5t90 -40.5z" />
    <glyph glyph-name="thorn" unicode="&#xfe;" 
d="M127 -188q-62 0 -62 63v775q0 31 16.5 47t45.5 16q63 0 63 -63v-233q22 38 63.5 60t93.5 22q64 0 112.5 -31t75.5 -87.5t27 -135.5q0 -78 -27 -135.5t-75 -88.5t-113 -31q-52 0 -93.5 22.5t-63.5 60.5v-198q0 -63 -63 -63zM312 85q56 0 90 40.5t34 119.5q0 80 -34 119.5
t-90 39.5t-90 -39.5t-34 -119.5q0 -79 34 -119.5t90 -40.5z" />
    <glyph glyph-name="q" unicode="q" 
d="M472 -188q-62 0 -62 63v199q-21 -38 -63 -61t-94 -23q-64 0 -112.5 31t-75.5 88.5t-27 135.5q0 79 27 135.5t75.5 87.5t112.5 31q53 0 95 -23.5t63 -62.5v21q0 63 62 63t62 -63v-559q0 -63 -63 -63zM288 85q56 0 90 40.5t34 119.5q0 80 -34 119.5t-90 39.5t-90 -39.5
t-34 -119.5q0 -79 34 -119.5t90 -40.5z" />
    <glyph glyph-name="r" unicode="r" horiz-adv-x="392" 
d="M129 -8q-64 0 -64 64v378q0 63 61 63t61 -63v-31q36 86 154 96q43 5 48 -49q5 -53 -52 -59l-22 -2q-123 -12 -123 -126v-207q0 -64 -63 -64z" />
    <glyph glyph-name="racute" unicode="&#x155;" horiz-adv-x="392" 
d="M129 -8q-64 0 -64 64v378q0 63 61 63t61 -63v-31q36 86 154 96q43 5 48 -49q5 -53 -52 -59l-22 -2q-123 -12 -123 -126v-207q0 -64 -63 -64zM274 560q-10 -14 -24 -16t-27 5t-18.5 20t2.5 29l76 149q11 23 31 26.5t38.5 -6.5t25.5 -28.5t-7 -38.5z" />
    <glyph glyph-name="rcaron" unicode="&#x159;" horiz-adv-x="392" 
d="M129 -8q-64 0 -64 64v378q0 63 61 63t61 -63v-31q36 86 154 96q43 5 48 -49q5 -53 -52 -59l-22 -2q-123 -12 -123 -126v-207q0 -64 -63 -64zM227 536q-45 0 -70 47l-72 131q-9 16 -4 29t17 19.5t25.5 4.5t22.5 -16l81 -126l81 126q9 14 22.5 16t25.5 -4.5t17 -19.5
t-4 -29l-71 -131q-25 -47 -71 -47z" />
    <glyph glyph-name="uni0157" unicode="&#x157;" horiz-adv-x="392" 
d="M129 -8q-64 0 -64 64v378q0 63 61 63t61 -63v-31q36 86 154 96q43 5 48 -49q5 -53 -52 -59l-22 -2q-123 -12 -123 -126v-207q0 -64 -63 -64zM154 -260q-13 -16 -29.5 -14t-24 15.5t6.5 33.5q12 18 17 41q-64 3 -64 59q0 58 67 58q68 0 68 -69q0 -31 -10 -64.5t-31 -59.5z
" />
    <glyph glyph-name="uni0211" unicode="&#x211;" horiz-adv-x="392" 
d="M129 -8q-64 0 -64 64v378q0 63 61 63t61 -63v-31q36 86 154 96q43 5 48 -49q5 -53 -52 -59l-22 -2q-123 -12 -123 -126v-207q0 -64 -63 -64zM118 564l-65 148q-10 24 -0.5 39.5t29 20.5t37.5 -3t24 -33l38 -153q5 -20 -8 -31t-30 -8.5t-25 20.5zM266 564l-65 148
q-10 24 0 39.5t29 20.5t37.5 -3t24.5 -33l37 -153q5 -20 -8 -31t-30 -8.5t-25 20.5z" />
    <glyph glyph-name="uni1E5B" unicode="&#x1e5b;" horiz-adv-x="392" 
d="M129 -8q-64 0 -64 64v378q0 63 61 63t61 -63v-31q36 86 154 96q43 5 48 -49q5 -53 -52 -59l-22 -2q-123 -12 -123 -126v-207q0 -64 -63 -64zM128 -209q-65 0 -65 63q0 62 65 62q66 0 66 -62q0 -63 -66 -63z" />
    <glyph glyph-name="uni0213" unicode="&#x213;" horiz-adv-x="392" 
d="M129 -8q-64 0 -64 64v378q0 63 61 63t61 -63v-31q36 86 154 96q43 5 48 -49q5 -53 -52 -59l-22 -2q-123 -12 -123 -126v-207q0 -64 -63 -64zM96 549q-16 1 -25.5 13.5t-6.5 32.5q10 67 51.5 111.5t111.5 44.5q71 0 112 -44.5t51 -111.5q3 -20 -6 -32.5t-26 -13.5
q-35 -2 -41 36q-7 45 -31.5 67.5t-58.5 22.5t-58 -22.5t-32 -67.5q-6 -38 -41 -36z" />
    <glyph glyph-name="uni1E5F" unicode="&#x1e5f;" horiz-adv-x="392" 
d="M129 -8q-64 0 -64 64v378q0 63 61 63t61 -63v-31q36 86 154 96q43 5 48 -49q5 -53 -52 -59l-22 -2q-123 -12 -123 -126v-207q0 -64 -63 -64zM5 -165q-39 0 -39 37t39 37h247q39 0 39 -37t-39 -37h-247z" />
    <glyph glyph-name="s" unicode="s" horiz-adv-x="488" 
d="M244 -10q-43 0 -91 9t-86 31q-21 12 -26 29.5t1.5 33t22 22.5t36.5 -3q40 -19 75 -26.5t69 -7.5q48 0 71.5 16.5t23.5 43.5q0 42 -62 54l-100 19q-127 24 -127 132q0 48 26.5 83t73.5 54t108 19q88 0 157 -39q19 -10 22.5 -27.5t-4 -33t-23.5 -22t-37 3.5
q-31 16 -59.5 23t-54.5 7q-49 0 -72.5 -17t-23.5 -45q0 -44 57 -54l100 -19q65 -12 98.5 -44t33.5 -86q0 -73 -57 -114.5t-152 -41.5z" />
    <glyph glyph-name="sacute" unicode="&#x15b;" horiz-adv-x="488" 
d="M244 -10q-43 0 -91 9t-86 31q-21 12 -26 29.5t1.5 33t22 22.5t36.5 -3q40 -19 75 -26.5t69 -7.5q48 0 71.5 16.5t23.5 43.5q0 42 -62 54l-100 19q-127 24 -127 132q0 48 26.5 83t73.5 54t108 19q88 0 157 -39q19 -10 22.5 -27.5t-4 -33t-23.5 -22t-37 3.5
q-31 16 -59.5 23t-54.5 7q-49 0 -72.5 -17t-23.5 -45q0 -44 57 -54l100 -19q65 -12 98.5 -44t33.5 -86q0 -73 -57 -114.5t-152 -41.5zM300 560q-10 -14 -24 -16t-27 5t-18.5 20t2.5 29l76 149q11 23 31 26.5t38.5 -6.5t25.5 -28.5t-7 -38.5z" />
    <glyph glyph-name="uni1E65" unicode="&#x1e65;" horiz-adv-x="488" 
d="M244 -10q-43 0 -91 9t-86 31q-21 12 -26 29.5t1.5 33t22 22.5t36.5 -3q40 -19 75 -26.5t69 -7.5q48 0 71.5 16.5t23.5 43.5q0 42 -62 54l-100 19q-127 24 -127 132q0 48 26.5 83t73.5 54t108 19q88 0 157 -39q19 -10 22.5 -27.5t-4 -33t-23.5 -22t-37 3.5
q-31 16 -59.5 23t-54.5 7q-49 0 -72.5 -17t-23.5 -45q0 -44 57 -54l100 -19q65 -12 98.5 -44t33.5 -86q0 -73 -57 -114.5t-152 -41.5zM197 747q-63 0 -63 49q0 48 63 48q61 0 61 -48q0 -49 -61 -49zM233 598l80 149q12 23 32.5 26.5t38.5 -6.5t25 -28.5t-8 -38.5l-101 -140
q-10 -14 -24.5 -16t-27.5 5t-18.5 20t3.5 29z" />
    <glyph glyph-name="scaron" unicode="&#x161;" horiz-adv-x="488" 
d="M244 -10q-43 0 -91 9t-86 31q-21 12 -26 29.5t1.5 33t22 22.5t36.5 -3q40 -19 75 -26.5t69 -7.5q48 0 71.5 16.5t23.5 43.5q0 42 -62 54l-100 19q-127 24 -127 132q0 48 26.5 83t73.5 54t108 19q88 0 157 -39q19 -10 22.5 -27.5t-4 -33t-23.5 -22t-37 3.5
q-31 16 -59.5 23t-54.5 7q-49 0 -72.5 -17t-23.5 -45q0 -44 57 -54l100 -19q65 -12 98.5 -44t33.5 -86q0 -73 -57 -114.5t-152 -41.5zM253 536q-45 0 -70 47l-72 131q-9 16 -4 29t17 19.5t25.5 4.5t22.5 -16l81 -126l81 126q9 14 22.5 16t25.5 -4.5t17 -19.5t-4 -29
l-71 -131q-25 -47 -71 -47z" />
    <glyph glyph-name="uni1E67" unicode="&#x1e67;" horiz-adv-x="488" 
d="M244 -10q-43 0 -91 9t-86 31q-21 12 -26 29.5t1.5 33t22 22.5t36.5 -3q40 -19 75 -26.5t69 -7.5q48 0 71.5 16.5t23.5 43.5q0 42 -62 54l-100 19q-127 24 -127 132q0 48 26.5 83t73.5 54t108 19q88 0 157 -39q19 -10 22.5 -27.5t-4 -33t-23.5 -22t-37 3.5
q-31 16 -59.5 23t-54.5 7q-49 0 -72.5 -17t-23.5 -45q0 -44 57 -54l100 -19q65 -12 98.5 -44t33.5 -86q0 -73 -57 -114.5t-152 -41.5zM254 747q-29 0 -45.5 13t-16.5 36t16.5 35.5t45.5 12.5q62 0 62 -48q0 -49 -62 -49zM253 544q-23 0 -41 8t-33 29l-71 102q-10 15 -2 29.5
t24 19t30 -10.5l93 -98l94 98q15 15 30.5 10.5t23.5 -19t-3 -29.5l-71 -102q-14 -21 -32.5 -29t-41.5 -8z" />
    <glyph glyph-name="scedilla" unicode="&#x15f;" horiz-adv-x="488" 
d="M244 -10q-43 0 -91 9t-86 31q-21 12 -26 29.5t1.5 33t22 22.5t36.5 -3q40 -19 75 -26.5t69 -7.5q48 0 71.5 16.5t23.5 43.5q0 42 -62 54l-100 19q-127 24 -127 132q0 48 26.5 83t73.5 54t108 19q88 0 157 -39q19 -10 22.5 -27.5t-4 -33t-23.5 -22t-37 3.5
q-31 16 -59.5 23t-54.5 7q-49 0 -72.5 -17t-23.5 -45q0 -44 57 -54l100 -19q65 -12 98.5 -44t33.5 -86q0 -73 -57 -114.5t-152 -41.5zM245 -195q-19 0 -40 2.5t-38 8.5q-20 7 -23 24t8.5 29t31.5 4q23 -8 51 -8q54 0 54 30q0 23 -37 23q-7 0 -14.5 -0.5t-15.5 -2.5
q-14 -4 -23 3q-8 7 -5 26l11 76h67l-10 -58q6 1 11 1q41 0 66 -19t25 -53q0 -39 -33 -62.5t-86 -23.5z" />
    <glyph glyph-name="scircumflex" unicode="&#x15d;" horiz-adv-x="488" 
d="M244 -10q-43 0 -91 9t-86 31q-21 12 -26 29.5t1.5 33t22 22.5t36.5 -3q40 -19 75 -26.5t69 -7.5q48 0 71.5 16.5t23.5 43.5q0 42 -62 54l-100 19q-127 24 -127 132q0 48 26.5 83t73.5 54t108 19q88 0 157 -39q19 -10 22.5 -27.5t-4 -33t-23.5 -22t-37 3.5
q-31 16 -59.5 23t-54.5 7q-49 0 -72.5 -17t-23.5 -45q0 -44 57 -54l100 -19q65 -12 98.5 -44t33.5 -86q0 -73 -57 -114.5t-152 -41.5zM395 597q9 -16 4 -29t-17 -19.5t-25.5 -4.5t-22.5 16l-81 126l-81 -126q-9 -14 -22.5 -16t-25.5 4.5t-17 19.5t4 29l72 132q24 45 70 45
q47 0 71 -45z" />
    <glyph glyph-name="uni0219" unicode="&#x219;" horiz-adv-x="488" 
d="M244 -10q-43 0 -91 9t-86 31q-21 12 -26 29.5t1.5 33t22 22.5t36.5 -3q40 -19 75 -26.5t69 -7.5q48 0 71.5 16.5t23.5 43.5q0 42 -62 54l-100 19q-127 24 -127 132q0 48 26.5 83t73.5 54t108 19q88 0 157 -39q19 -10 22.5 -27.5t-4 -33t-23.5 -22t-37 3.5
q-31 16 -59.5 23t-54.5 7q-49 0 -72.5 -17t-23.5 -45q0 -44 57 -54l100 -19q65 -12 98.5 -44t33.5 -86q0 -73 -57 -114.5t-152 -41.5zM270 -260q-13 -16 -29.5 -14t-24 15.5t6.5 33.5q12 18 17 41q-64 3 -64 59q0 58 67 58q68 0 68 -69q0 -31 -10 -64.5t-31 -59.5z" />
    <glyph glyph-name="uni1E61" unicode="&#x1e61;" horiz-adv-x="488" 
d="M244 -10q-43 0 -91 9t-86 31q-21 12 -26 29.5t1.5 33t22 22.5t36.5 -3q40 -19 75 -26.5t69 -7.5q48 0 71.5 16.5t23.5 43.5q0 42 -62 54l-100 19q-127 24 -127 132q0 48 26.5 83t73.5 54t108 19q88 0 157 -39q19 -10 22.5 -27.5t-4 -33t-23.5 -22t-37 3.5
q-31 16 -59.5 23t-54.5 7q-49 0 -72.5 -17t-23.5 -45q0 -44 57 -54l100 -19q65 -12 98.5 -44t33.5 -86q0 -73 -57 -114.5t-152 -41.5zM253 593q-65 0 -65 63q0 62 65 62q66 0 66 -62q0 -63 -66 -63z" />
    <glyph glyph-name="uni1E63" unicode="&#x1e63;" horiz-adv-x="488" 
d="M244 -10q-43 0 -91 9t-86 31q-21 12 -26 29.5t1.5 33t22 22.5t36.5 -3q40 -19 75 -26.5t69 -7.5q48 0 71.5 16.5t23.5 43.5q0 42 -62 54l-100 19q-127 24 -127 132q0 48 26.5 83t73.5 54t108 19q88 0 157 -39q19 -10 22.5 -27.5t-4 -33t-23.5 -22t-37 3.5
q-31 16 -59.5 23t-54.5 7q-49 0 -72.5 -17t-23.5 -45q0 -44 57 -54l100 -19q65 -12 98.5 -44t33.5 -86q0 -73 -57 -114.5t-152 -41.5zM244 -209q-65 0 -65 63q0 62 65 62q66 0 66 -62q0 -63 -66 -63z" />
    <glyph glyph-name="uni1E69" unicode="&#x1e69;" horiz-adv-x="488" 
d="M244 -10q-43 0 -91 9t-86 31q-21 12 -26 29.5t1.5 33t22 22.5t36.5 -3q40 -19 75 -26.5t69 -7.5q48 0 71.5 16.5t23.5 43.5q0 42 -62 54l-100 19q-127 24 -127 132q0 48 26.5 83t73.5 54t108 19q88 0 157 -39q19 -10 22.5 -27.5t-4 -33t-23.5 -22t-37 3.5
q-31 16 -59.5 23t-54.5 7q-49 0 -72.5 -17t-23.5 -45q0 -44 57 -54l100 -19q65 -12 98.5 -44t33.5 -86q0 -73 -57 -114.5t-152 -41.5zM244 -209q-65 0 -65 63q0 62 65 62q66 0 66 -62q0 -63 -66 -63zM253 593q-65 0 -65 63q0 62 65 62q66 0 66 -62q0 -63 -66 -63z" />
    <glyph glyph-name="germandbls" unicode="&#xdf;" horiz-adv-x="653" 
d="M436 -10q-43 0 -87.5 11t-81.5 33q-21 12 -25 31t4 35t24.5 23t36.5 -5q33 -19 68.5 -26.5t62.5 -7.5q37 0 58 15t21 43q0 23 -20.5 38.5t-74.5 31.5q-79 24 -111 57t-32 82q0 32 14.5 61.5t57.5 69.5q26 25 36.5 43.5t10.5 39.5q0 27 -19.5 43t-57.5 16q-64 0 -97.5 -38
t-33.5 -108v-422q0 -64 -63 -64q-62 0 -62 64v403q0 123 66.5 189.5t190.5 66.5q92 0 143 -37.5t51 -101.5q0 -35 -15 -65t-53 -65q-32 -30 -43 -46.5t-11 -33.5q0 -21 20.5 -36.5t77.5 -32.5q74 -22 106.5 -58t32.5 -90q0 -72 -53 -115.5t-142 -43.5z" />
    <glyph glyph-name="t" unicode="t" horiz-adv-x="384" 
d="M289 -10q-194 0 -194 192v213h-52q-50 0 -50 47t50 47h52v91q0 63 63 63q62 0 62 -63v-91h106q50 0 50 -47t-50 -47h-106v-206q0 -48 21 -72t68 -24q17 0 30 3t23 4q12 1 20 -7.5t8 -34.5q0 -20 -6.5 -35.5t-23.5 -21.5q-13 -4 -34 -7.5t-37 -3.5z" />
    <glyph glyph-name="tbar" unicode="&#x167;" horiz-adv-x="384" 
d="M289 -10q-194 0 -194 192v213h-52q-50 0 -50 47t50 47h52v91q0 63 63 63q62 0 62 -63v-91h106q50 0 50 -47t-50 -47h-106v-206q0 -48 21 -72t68 -24q17 0 30 3t23 4q12 1 20 -7.5t8 -34.5q0 -20 -6.5 -35.5t-23.5 -21.5q-13 -4 -34 -7.5t-37 -3.5zM59 223q-41 0 -41 38
t41 38h242q41 0 41 -38t-41 -38h-242z" />
    <glyph glyph-name="tcaron" unicode="&#x165;" horiz-adv-x="384" 
d="M289 -10q-194 0 -194 192v213h-52q-50 0 -50 47t50 47h52v91q0 63 63 63q62 0 62 -63v-91h106q50 0 50 -47t-50 -47h-106v-206q0 -48 21 -72t68 -24q17 0 30 3t23 4q12 1 20 -7.5t8 -34.5q0 -20 -6.5 -35.5t-23.5 -21.5q-13 -4 -34 -7.5t-37 -3.5zM304 523q-29 0 -29 31
v117q0 42 42 42q43 0 37 -44l-18 -117q-5 -29 -32 -29z" />
    <glyph glyph-name="uni0163" unicode="&#x163;" horiz-adv-x="384" 
d="M289 -10q-194 0 -194 192v213h-52q-50 0 -50 47t50 47h52v91q0 63 63 63q62 0 62 -63v-91h106q50 0 50 -47t-50 -47h-106v-206q0 -48 21 -72t68 -24q17 0 30 3t23 4q12 1 20 -7.5t8 -34.5q0 -20 -6.5 -35.5t-23.5 -21.5q-13 -4 -34 -7.5t-37 -3.5zM231 -195
q-19 0 -40 2.5t-38 8.5q-20 7 -23 24t8.5 29t31.5 4q23 -8 51 -8q54 0 54 30q0 23 -37 23q-7 0 -14.5 -0.5t-15.5 -2.5q-14 -4 -23 3q-8 7 -5 26l11 76h67l-10 -58q6 1 11 1q41 0 66 -19t25 -53q0 -39 -33 -62.5t-86 -23.5z" />
    <glyph glyph-name="uni021B" unicode="&#x21b;" horiz-adv-x="384" 
d="M289 -10q-194 0 -194 192v213h-52q-50 0 -50 47t50 47h52v91q0 63 63 63q62 0 62 -63v-91h106q50 0 50 -47t-50 -47h-106v-206q0 -48 21 -72t68 -24q17 0 30 3t23 4q12 1 20 -7.5t8 -34.5q0 -20 -6.5 -35.5t-23.5 -21.5q-13 -4 -34 -7.5t-37 -3.5zM256 -260
q-13 -16 -29.5 -14t-24 15.5t6.5 33.5q12 18 17 41q-64 3 -64 59q0 58 67 58q68 0 68 -69q0 -31 -10 -64.5t-31 -59.5z" />
    <glyph glyph-name="uni1E97" unicode="&#x1e97;" horiz-adv-x="384" 
d="M289 -10q-194 0 -194 192v213h-52q-50 0 -50 47t50 47h52v91q0 63 63 63q62 0 62 -63v-91h106q50 0 50 -47t-50 -47h-106v-206q0 -48 21 -72t68 -24q17 0 30 3t23 4q12 1 20 -7.5t8 -34.5q0 -20 -6.5 -35.5t-23.5 -21.5q-13 -4 -34 -7.5t-37 -3.5zM253 716q-62 0 -62 62
q0 61 62 61q61 0 61 -61q0 -62 -61 -62zM64 716q-29 0 -45.5 16t-16.5 46q0 29 16.5 45t45.5 16q62 0 62 -61q0 -62 -62 -62z" />
    <glyph glyph-name="uni1E6D" unicode="&#x1e6d;" horiz-adv-x="384" 
d="M289 -10q-194 0 -194 192v213h-52q-50 0 -50 47t50 47h52v91q0 63 63 63q62 0 62 -63v-91h106q50 0 50 -47t-50 -47h-106v-206q0 -48 21 -72t68 -24q17 0 30 3t23 4q12 1 20 -7.5t8 -34.5q0 -20 -6.5 -35.5t-23.5 -21.5q-13 -4 -34 -7.5t-37 -3.5zM230 -209q-65 0 -65 63
q0 62 65 62q66 0 66 -62q0 -63 -66 -63z" />
    <glyph glyph-name="uni1E6F" unicode="&#x1e6f;" horiz-adv-x="384" 
d="M289 -10q-194 0 -194 192v213h-52q-50 0 -50 47t50 47h52v91q0 63 63 63q62 0 62 -63v-91h106q50 0 50 -47t-50 -47h-106v-206q0 -48 21 -72t68 -24q17 0 30 3t23 4q12 1 20 -7.5t8 -34.5q0 -20 -6.5 -35.5t-23.5 -21.5q-13 -4 -34 -7.5t-37 -3.5zM107 -165q-39 0 -39 37
t39 37h247q39 0 39 -37t-39 -37h-247z" />
    <glyph glyph-name="u" unicode="u" horiz-adv-x="579" 
d="M242 -10q-180 0 -180 202v242q0 63 62 63q63 0 63 -63v-244q0 -52 21 -77t67 -25q50 0 82 34.5t32 91.5v220q0 63 62 63q63 0 63 -63v-378q0 -64 -61 -64t-61 64v17q-49 -83 -150 -83z" />
    <glyph glyph-name="uacute" unicode="&#xfa;" horiz-adv-x="579" 
d="M242 -10q-180 0 -180 202v242q0 63 62 63q63 0 63 -63v-244q0 -52 21 -77t67 -25q50 0 82 34.5t32 91.5v220q0 63 62 63q63 0 63 -63v-378q0 -64 -61 -64t-61 64v17q-49 -83 -150 -83zM336 561q-10 -14 -24 -16t-27 5t-18.5 20t2.5 29l76 149q11 23 31 26.5t38.5 -6.5
t25.5 -28.5t-7 -38.5z" />
    <glyph glyph-name="ubreve" unicode="&#x16d;" horiz-adv-x="579" 
d="M242 -10q-180 0 -180 202v242q0 63 62 63q63 0 63 -63v-244q0 -52 21 -77t67 -25q50 0 82 34.5t32 91.5v220q0 63 62 63q63 0 63 -63v-378q0 -64 -61 -64t-61 64v17q-49 -83 -150 -83zM289 552q-70 0 -111 44.5t-52 111.5q-3 20 6.5 32.5t25.5 13.5q35 2 41 -36
q8 -45 32 -67.5t58 -22.5t58.5 22.5t31.5 67.5q6 38 41 36q17 -1 26 -13.5t6 -32.5q-10 -67 -51 -111.5t-112 -44.5z" />
    <glyph glyph-name="uni01D4" unicode="&#x1d4;" horiz-adv-x="579" 
d="M242 -10q-180 0 -180 202v242q0 63 62 63q63 0 63 -63v-244q0 -52 21 -77t67 -25q50 0 82 34.5t32 91.5v220q0 63 62 63q63 0 63 -63v-378q0 -64 -61 -64t-61 64v17q-49 -83 -150 -83zM289 537q-45 0 -70 47l-72 131q-9 16 -4 29t17 19.5t25.5 4.5t22.5 -16l81 -126
l81 126q9 14 22.5 16t25.5 -4.5t17 -19.5t-4 -29l-71 -131q-25 -47 -71 -47z" />
    <glyph glyph-name="ucircumflex" unicode="&#xfb;" horiz-adv-x="579" 
d="M242 -10q-180 0 -180 202v242q0 63 62 63q63 0 63 -63v-244q0 -52 21 -77t67 -25q50 0 82 34.5t32 91.5v220q0 63 62 63q63 0 63 -63v-378q0 -64 -61 -64t-61 64v17q-49 -83 -150 -83zM431 598q9 -16 4 -29t-17 -19.5t-25.5 -4.5t-22.5 16l-81 126l-81 -126
q-9 -14 -22.5 -16t-25.5 4.5t-17 19.5t4 29l72 132q24 45 70 45q47 0 71 -45z" />
    <glyph glyph-name="uni0215" unicode="&#x215;" horiz-adv-x="579" 
d="M242 -10q-180 0 -180 202v242q0 63 62 63q63 0 63 -63v-244q0 -52 21 -77t67 -25q50 0 82 34.5t32 91.5v220q0 63 62 63q63 0 63 -63v-378q0 -64 -61 -64t-61 64v17q-49 -83 -150 -83zM180 565l-65 148q-10 24 -0.5 39.5t29 20.5t37.5 -3t24 -33l38 -153q5 -20 -8 -31
t-30 -8.5t-25 20.5zM328 565l-65 148q-10 24 0 39.5t29 20.5t37.5 -3t24.5 -33l37 -153q5 -20 -8 -31t-30 -8.5t-25 20.5z" />
    <glyph glyph-name="udieresis" unicode="&#xfc;" horiz-adv-x="579" 
d="M242 -10q-180 0 -180 202v242q0 63 62 63q63 0 63 -63v-244q0 -52 21 -77t67 -25q50 0 82 34.5t32 91.5v220q0 63 62 63q63 0 63 -63v-378q0 -64 -61 -64t-61 64v17q-49 -83 -150 -83zM384 594q-62 0 -62 62q0 61 62 61q61 0 61 -61q0 -62 -61 -62zM195 594
q-29 0 -45.5 16t-16.5 46q0 29 16.5 45t45.5 16q62 0 62 -61q0 -62 -62 -62z" />
    <glyph glyph-name="uni1EE5" unicode="&#x1ee5;" horiz-adv-x="579" 
d="M242 -10q-180 0 -180 202v242q0 63 62 63q63 0 63 -63v-244q0 -52 21 -77t67 -25q50 0 82 34.5t32 91.5v220q0 63 62 63q63 0 63 -63v-378q0 -64 -61 -64t-61 64v17q-49 -83 -150 -83zM289 -209q-65 0 -65 63q0 62 65 62q66 0 66 -62q0 -63 -66 -63z" />
    <glyph glyph-name="ugrave" unicode="&#xf9;" horiz-adv-x="579" 
d="M242 -10q-180 0 -180 202v242q0 63 62 63q63 0 63 -63v-244q0 -52 21 -77t67 -25q50 0 82 34.5t32 91.5v220q0 63 62 63q63 0 63 -63v-378q0 -64 -61 -64t-61 64v17q-49 -83 -150 -83zM243 561l-97 140q-14 21 -7 39t25 28t38 6.5t32 -26.5l75 -149q8 -16 3 -29t-18 -20
t-27 -5t-24 16z" />
    </font>
</defs>
</svg>
