<?xml version="1.0" standalone="no"?>
<!DOCTYPE svg PUBLIC "-//W3C//DTD SVG 1.1//EN" "http://www.w3.org/Graphics/SVG/1.1/DTD/svg11.dtd" >
<svg xmlns="http://www.w3.org/2000/svg" xmlns:xlink="http://www.w3.org/1999/xlink" version="1.1">
<metadata>
Created by FontForge 20201107 at Tue Nov 24 10:50:41 2020
 By Jimmy Wärting
Copyright 2014 The Nunito Project Authors (https://github.com/googlefonts/nunito)
</metadata>
<defs>
<font id="Nunito-BoldItalic" horiz-adv-x="600" >
  <font-face 
    font-family="Nunito"
    font-weight="700"
    font-style="italic"
    font-stretch="normal"
    units-per-em="1000"
    panose-1="0 0 0 0 0 0 0 0 0 0"
    ascent="800"
    descent="-200"
    x-height="489"
    cap-height="705"
    bbox="-308.889 -278 1383.25 1056"
    underline-thickness="44"
    underline-position="-107"
    slope="-9"
    unicode-range="U+000D-FB02"
  />
<missing-glyph horiz-adv-x="500" 
d="M50 -180v885h400v-885h-400zM100 -130h300v785h-300v-785z" />
    <glyph glyph-name="fi" unicode="fi" horiz-adv-x="611" 
d="M542 589q-32 0 -48.5 16.5t-12.5 46.5q8 69 82 69q32 0 49 -16.5t13 -46.5q-9 -69 -83 -69zM121 -8q-29 0 -42.5 19.5t-8.5 53.5l53 330h-42q-49 0 -49 38q0 26 15.5 41t41.5 15h48l4 24q14 86 68.5 136t156.5 57l30 2q25 2 36.5 -11.5t11.5 -31.5t-10 -32.5t-29 -16.5
l-28 -2q-96 -7 -111 -99l-4 -26h260q29 0 43 -15.5t9 -47.5l-59 -372q-9 -62 -72 -62q-29 0 -43 19.5t-9 53.5l53 330h-196l-55 -341q-11 -62 -72 -62z" />
    <glyph glyph-name="fl" unicode="fl" horiz-adv-x="683" 
d="M121 -8q-29 0 -42.5 19.5t-8.5 53.5l53 330h-42q-49 0 -49 38q0 26 15.5 41t41.5 15h48l4 24q14 86 68 136t158 57l32 2q25 2 36.5 -11.5t11 -31.5t-10.5 -32.5t-29 -16.5l-27 -2q-52 -4 -79 -28t-35 -71l-4 -26h79q49 0 49 -37q0 -27 -15.5 -42t-41.5 -15h-85l-54 -341
q-11 -62 -73 -62zM561 -10q-83 0 -120 47.5t-23 138.5l76 475q9 62 72 62q29 0 42.5 -19t8.5 -54l-74 -463q-7 -44 7.5 -64.5t47.5 -20.5q11 0 18 1.5t13 1.5q10 0 16 -7t6 -27q0 -29 -12 -44.5t-29 -20.5q-9 -3 -23 -4.5t-26 -1.5z" />
    <glyph glyph-name=".notdef" horiz-adv-x="500" 
d="M50 -180v885h400v-885h-400zM100 -130h300v785h-300v-785z" />
    <glyph glyph-name="A" unicode="A" horiz-adv-x="744" 
d="M52 -8q-34 0 -50 22.5t3 54.5l367 600q14 23 31 33.5t42 10.5q52 0 67 -52l172 -589q12 -40 -4.5 -60t-45.5 -20q-28 0 -42.5 14t-22.5 43l-30 114h-345l-78 -133q-23 -38 -64 -38zM430 566l-177 -301h258l-79 301h-2z" />
    <glyph glyph-name="Aacute" unicode="&#xc1;" horiz-adv-x="744" 
d="M52 -8q-34 0 -50 22.5t3 54.5l367 600q14 23 31 33.5t42 10.5q52 0 67 -52l172 -589q12 -40 -4.5 -60t-45.5 -20q-28 0 -42.5 14t-22.5 43l-30 114h-345l-78 -133q-23 -38 -64 -38zM430 566l-177 -301h258l-79 301h-2zM506 771q-18 -18 -37 -13.5t-27 21.5t6 36l85 113
q17 22 37.5 24t36 -10t18.5 -30.5t-15 -36.5z" />
    <glyph glyph-name="Abreve" unicode="&#x102;" horiz-adv-x="744" 
d="M52 -8q-34 0 -50 22.5t3 54.5l367 600q14 23 31 33.5t42 10.5q52 0 67 -52l172 -589q12 -40 -4.5 -60t-45.5 -20q-28 0 -42.5 14t-22.5 43l-30 114h-345l-78 -133q-23 -38 -64 -38zM430 566l-177 -301h258l-79 301h-2zM460 760q-73 0 -116 38.5t-53 98.5q-6 39 30 44
q17 2 28.5 -5.5t13.5 -24.5q5 -36 32 -56t68 -20q38 0 69 19t44 58q5 15 16 23t28 6t25 -14.5t1 -32.5q-20 -61 -69.5 -97.5t-116.5 -36.5z" />
    <glyph glyph-name="uni1EAE" unicode="&#x1eae;" horiz-adv-x="744" 
d="M52 -8q-34 0 -50 22.5t3 54.5l367 600q14 23 31 33.5t42 10.5q52 0 67 -52l172 -589q12 -40 -4.5 -60t-45.5 -20q-28 0 -42.5 14t-22.5 43l-30 114h-345l-78 -133q-23 -38 -64 -38zM430 566l-177 -301h258l-79 301h-2zM502 888q-16 -17 -34 -15t-25.5 17t5.5 36l55 87
q14 21 33 23.5t34.5 -7.5t19.5 -27.5t-14 -35.5zM461 760q-68 0 -109 34.5t-49 87.5q-6 38 26 41q17 2 26 -7t12 -21q8 -31 33 -48t64 -17q40 0 69.5 18t42.5 53q4 11 12.5 17.5t24.5 4.5q14 -1 21 -10.5t2 -28.5q-14 -52 -59 -88t-116 -36z" />
    <glyph glyph-name="uni1EB6" unicode="&#x1eb6;" horiz-adv-x="744" 
d="M52 -8q-34 0 -50 22.5t3 54.5l367 600q14 23 31 33.5t42 10.5q52 0 67 -52l172 -589q12 -40 -4.5 -60t-45.5 -20q-28 0 -42.5 14t-22.5 43l-30 114h-345l-78 -133q-23 -38 -64 -38zM430 566l-177 -301h258l-79 301h-2zM319 -209q-56 0 -56 50q0 35 20.5 55t55.5 20
q57 0 57 -49q0 -34 -20.5 -55t-56.5 -21zM460 760q-73 0 -116 38.5t-53 98.5q-6 39 30 44q17 2 28.5 -5.5t13.5 -24.5q5 -36 32 -56t68 -20q38 0 69 19t44 58q5 15 16 23t28 6t25 -14.5t1 -32.5q-20 -61 -69.5 -97.5t-116.5 -36.5z" />
    <glyph glyph-name="uni1EB0" unicode="&#x1eb0;" horiz-adv-x="744" 
d="M52 -8q-34 0 -50 22.5t3 54.5l367 600q14 23 31 33.5t42 10.5q52 0 67 -52l172 -589q12 -40 -4.5 -60t-45.5 -20q-28 0 -42.5 14t-22.5 43l-30 114h-345l-78 -133q-23 -38 -64 -38zM430 566l-177 -301h258l-79 301h-2zM435 889l-60 79q-15 20 -8 37.5t25.5 26.5t38.5 4.5
t30 -28.5l38 -87q10 -22 -1.5 -35.5t-30.5 -13.5t-32 17zM461 760q-68 0 -109 34.5t-49 87.5q-6 38 26 41q17 2 26 -7t12 -21q8 -31 33 -48t64 -17q40 0 69.5 18t42.5 53q4 11 12.5 17.5t24.5 4.5q14 -1 21 -10.5t2 -28.5q-14 -52 -59 -88t-116 -36z" />
    <glyph glyph-name="uni1EB2" unicode="&#x1eb2;" horiz-adv-x="744" 
d="M52 -8q-34 0 -50 22.5t3 54.5l367 600q14 23 31 33.5t42 10.5q52 0 67 -52l172 -589q12 -40 -4.5 -60t-45.5 -20q-28 0 -42.5 14t-22.5 43l-30 114h-345l-78 -133q-23 -38 -64 -38zM430 566l-177 -301h258l-79 301h-2zM495 882q-17 -8 -33 -5t-21 12.5t10 19.5
q20 14 30.5 24.5t10.5 23.5q0 21 -32 21q-18 0 -38 -5q-30 -8 -35 15q-5 24 21 33q35 11 76 11q92 0 92 -57q0 -32 -26 -55.5t-55 -37.5zM461 760q-68 0 -109 34.5t-49 87.5q-6 38 26 41q17 2 26 -7t12 -21q8 -31 33 -48t64 -17q40 0 69.5 18t42.5 53q4 11 12.5 17.5
t24.5 4.5q14 -1 21 -10.5t2 -28.5q-14 -52 -59 -88t-116 -36z" />
    <glyph glyph-name="uni1EB4" unicode="&#x1eb4;" horiz-adv-x="744" 
d="M52 -8q-34 0 -50 22.5t3 54.5l367 600q14 23 31 33.5t42 10.5q52 0 67 -52l172 -589q12 -40 -4.5 -60t-45.5 -20q-28 0 -42.5 14t-22.5 43l-30 114h-345l-78 -133q-23 -38 -64 -38zM430 566l-177 -301h258l-79 301h-2zM330 917q-14 1 -21.5 11.5t-0.5 27.5q29 75 103 75
q26 0 49.5 -11t44 -22t38.5 -11q16 0 28.5 6.5t18.5 19.5q10 23 36 22q14 -1 21.5 -11.5t0.5 -27.5q-29 -75 -103 -75q-26 0 -49.5 11t-44 22t-38.5 11q-16 0 -28.5 -6t-18.5 -20q-10 -23 -36 -22zM459 760q-53 0 -94 21.5t-61 61.5q-7 16 -1.5 28t19.5 16q29 7 45 -17
q13 -20 38 -30t57 -10q33 0 58.5 9.5t44.5 31.5q11 12 20.5 16.5t24.5 -0.5q14 -4 18.5 -15t-3.5 -26q-22 -41 -66.5 -63.5t-99.5 -22.5z" />
    <glyph glyph-name="uni01CD" unicode="&#x1cd;" horiz-adv-x="744" 
d="M52 -8q-34 0 -50 22.5t3 54.5l367 600q14 23 31 33.5t42 10.5q52 0 67 -52l172 -589q12 -40 -4.5 -60t-45.5 -20q-28 0 -42.5 14t-22.5 43l-30 114h-345l-78 -133q-23 -38 -64 -38zM430 566l-177 -301h258l-79 301h-2zM452 753q-24 0 -40.5 12t-30.5 34l-60 96
q-10 17 -6 30t16.5 19.5t28 3t27.5 -19.5l72 -93l96 100q12 13 27 14t27 -6.5t15 -19.5t-8 -26l-83 -102q-33 -42 -81 -42z" />
    <glyph glyph-name="Acircumflex" unicode="&#xc2;" horiz-adv-x="744" 
d="M52 -8q-34 0 -50 22.5t3 54.5l367 600q14 23 31 33.5t42 10.5q52 0 67 -52l172 -589q12 -40 -4.5 -60t-45.5 -20q-28 0 -42.5 14t-22.5 43l-30 114h-345l-78 -133q-23 -38 -64 -38zM430 566l-177 -301h258l-79 301h-2zM363 770q-16 -17 -35.5 -14t-28 18.5t6.5 33.5
l83 103q34 41 80 41q24 0 41 -12t30 -35l59 -95q11 -17 6.5 -30.5t-17.5 -20t-29 -3.5t-28 19l-71 94z" />
    <glyph glyph-name="uni1EA4" unicode="&#x1ea4;" horiz-adv-x="744" 
d="M52 -8q-34 0 -50 22.5t3 54.5l367 600q14 23 31 33.5t42 10.5q52 0 67 -52l172 -589q12 -40 -4.5 -60t-45.5 -20q-28 0 -42.5 14t-22.5 43l-30 114h-345l-78 -133q-23 -38 -64 -38zM430 566l-177 -301h258l-79 301h-2zM637 866q-13 -15 -29 -13t-23.5 15t3.5 31l74 115
q12 18 28.5 20t30 -7.5t17 -25t-11.5 -32.5zM368 767q-16 -16 -32.5 -11.5t-23.5 19t4 28.5l72 93q15 19 35 29.5t47 10.5q33 0 49 -14t26 -32l51 -87q11 -18 1 -32t-28.5 -16t-32.5 15l-74 91z" />
    <glyph glyph-name="uni1EAC" unicode="&#x1eac;" horiz-adv-x="744" 
d="M52 -8q-34 0 -50 22.5t3 54.5l367 600q14 23 31 33.5t42 10.5q52 0 67 -52l172 -589q12 -40 -4.5 -60t-45.5 -20q-28 0 -42.5 14t-22.5 43l-30 114h-345l-78 -133q-23 -38 -64 -38zM430 566l-177 -301h258l-79 301h-2zM319 -209q-56 0 -56 50q0 35 20.5 55t55.5 20
q57 0 57 -49q0 -34 -20.5 -55t-56.5 -21zM363 770q-16 -17 -35.5 -14t-28 18.5t6.5 33.5l83 103q34 41 80 41q24 0 41 -12t30 -35l59 -95q11 -17 6.5 -30.5t-17.5 -20t-29 -3.5t-28 19l-71 94z" />
    <glyph glyph-name="uni1EA6" unicode="&#x1ea6;" horiz-adv-x="744" 
d="M52 -8q-34 0 -50 22.5t3 54.5l367 600q14 23 31 33.5t42 10.5q52 0 67 -52l172 -589q12 -40 -4.5 -60t-45.5 -20q-28 0 -42.5 14t-22.5 43l-30 114h-345l-78 -133q-23 -38 -64 -38zM430 566l-177 -301h258l-79 301h-2zM613 868l-73 105q-12 17 -5.5 32.5t22 23.5t32.5 5
t26 -23l54 -112q10 -19 0 -32t-27 -14t-29 15zM368 767q-16 -16 -32.5 -11.5t-23.5 19t4 28.5l72 93q15 19 35 29.5t47 10.5q33 0 49 -14t26 -32l51 -87q11 -18 1 -32t-28.5 -16t-32.5 15l-74 91z" />
    <glyph glyph-name="uni1EA8" unicode="&#x1ea8;" horiz-adv-x="744" 
d="M52 -8q-34 0 -50 22.5t3 54.5l367 600q14 23 31 33.5t42 10.5q52 0 67 -52l172 -589q12 -40 -4.5 -60t-45.5 -20q-28 0 -42.5 14t-22.5 43l-30 114h-345l-78 -133q-23 -38 -64 -38zM430 566l-177 -301h258l-79 301h-2zM631 870q-17 -8 -32.5 -4.5t-19.5 14t11 20.5
q20 14 31.5 25.5t11.5 24.5q0 11 -9 16.5t-23 5.5q-9 0 -19 -1t-20 -3q-13 -2 -22 0.5t-12 14.5q-6 24 20 33q17 5 36 7.5t40 2.5q47 0 69.5 -15.5t22.5 -41.5q0 -21 -13 -40t-32.5 -34t-39.5 -25zM368 767q-16 -16 -32.5 -11.5t-23.5 19t4 28.5l72 93q15 19 35 29.5
t47 10.5q33 0 49 -14t26 -32l51 -87q11 -18 1 -32t-28.5 -16t-32.5 15l-74 91z" />
    <glyph glyph-name="uni1EAA" unicode="&#x1eaa;" horiz-adv-x="744" 
d="M52 -8q-34 0 -50 22.5t3 54.5l367 600q14 23 31 33.5t42 10.5q52 0 67 -52l172 -589q12 -40 -4.5 -60t-45.5 -20q-28 0 -42.5 14t-22.5 43l-30 114h-345l-78 -133q-23 -38 -64 -38zM430 566l-177 -301h258l-79 301h-2zM330 919q-14 1 -21 11.5t-1 27.5q26 75 103 75
q26 0 48 -11t41.5 -22t37.5 -11q16 0 29 6t19 21q8 22 35 21q14 -1 21 -11.5t1 -27.5q-26 -75 -103 -75q-26 0 -48.5 11t-41.5 22t-37 11q-16 0 -29 -6t-19 -21q-8 -22 -35 -21zM362 763q-18 -13 -32.5 -9t-19 17.5t8.5 27.5l69 75q14 15 32 27.5t49 12.5q32 0 45.5 -14.5
t26.5 -31.5l54 -72q12 -15 4 -27.5t-25 -14.5t-34 12l-80 71z" />
    <glyph glyph-name="uni0200" unicode="&#x200;" horiz-adv-x="744" 
d="M52 -8q-34 0 -50 22.5t3 54.5l367 600q14 23 31 33.5t42 10.5q52 0 67 -52l172 -589q12 -40 -4.5 -60t-45.5 -20q-28 0 -42.5 14t-22.5 43l-30 114h-345l-78 -133q-23 -38 -64 -38zM430 566l-177 -301h258l-79 301h-2zM488 773l-71 111q-13 21 -6 38.5t24.5 25.5t36 3
t28.5 -29l48 -118q8 -19 -2.5 -33t-28 -15.5t-29.5 17.5zM341 774l-78 112q-14 20 -7.5 37t24 25t36.5 2.5t29 -28.5l55 -120q9 -19 -1 -32.5t-27 -14t-31 18.5z" />
    <glyph glyph-name="Adieresis" unicode="&#xc4;" horiz-adv-x="744" 
d="M52 -8q-34 0 -50 22.5t3 54.5l367 600q14 23 31 33.5t42 10.5q52 0 67 -52l172 -589q12 -40 -4.5 -60t-45.5 -20q-28 0 -42.5 14t-22.5 43l-30 114h-345l-78 -133q-23 -38 -64 -38zM430 566l-177 -301h258l-79 301h-2zM553 786q-54 0 -54 48q0 34 19 54.5t53 20.5
q54 0 54 -48q0 -34 -18.5 -54.5t-53.5 -20.5zM364 786q-53 0 -53 48q0 34 19 54.5t53 20.5q53 0 53 -48q0 -34 -18.5 -54.5t-53.5 -20.5z" />
    <glyph glyph-name="uni0226" unicode="&#x226;" horiz-adv-x="744" 
d="M52 -8q-34 0 -50 22.5t3 54.5l367 600q14 23 31 33.5t42 10.5q52 0 67 -52l172 -589q12 -40 -4.5 -60t-45.5 -20q-28 0 -42.5 14t-22.5 43l-30 114h-345l-78 -133q-23 -38 -64 -38zM430 566l-177 -301h258l-79 301h-2zM459 789q-57 0 -57 50q0 35 20.5 55t56.5 20
q57 0 57 -49q0 -34 -20.5 -55t-56.5 -21z" />
    <glyph glyph-name="uni1EA0" unicode="&#x1ea0;" horiz-adv-x="744" 
d="M52 -8q-34 0 -50 22.5t3 54.5l367 600q14 23 31 33.5t42 10.5q52 0 67 -52l172 -589q12 -40 -4.5 -60t-45.5 -20q-28 0 -42.5 14t-22.5 43l-30 114h-345l-78 -133q-23 -38 -64 -38zM430 566l-177 -301h258l-79 301h-2zM319 -209q-56 0 -56 50q0 35 20.5 55t55.5 20
q57 0 57 -49q0 -34 -20.5 -55t-56.5 -21z" />
    <glyph glyph-name="Agrave" unicode="&#xc0;" horiz-adv-x="744" 
d="M52 -8q-34 0 -50 22.5t3 54.5l367 600q14 23 31 33.5t42 10.5q52 0 67 -52l172 -589q12 -40 -4.5 -60t-45.5 -20q-28 0 -42.5 14t-22.5 43l-30 114h-345l-78 -133q-23 -38 -64 -38zM430 566l-177 -301h258l-79 301h-2zM404 773l-83 100q-17 21 -12.5 40t22 30.5t38 8
t34.5 -27.5l65 -106q9 -16 5 -30t-16 -22.5t-26.5 -7.5t-26.5 15z" />
    <glyph glyph-name="uni1EA2" unicode="&#x1ea2;" horiz-adv-x="744" 
d="M52 -8q-34 0 -50 22.5t3 54.5l367 600q14 23 31 33.5t42 10.5q52 0 67 -52l172 -589q12 -40 -4.5 -60t-45.5 -20q-28 0 -42.5 14t-22.5 43l-30 114h-345l-78 -133q-23 -38 -64 -38zM430 566l-177 -301h258l-79 301h-2zM453 757q-37 0 -34 26q3 24 19 37t30.5 23t14.5 24
q0 18 -38 18q-8 0 -18 -1t-20 -4q-16 -5 -24.5 -1t-13.5 17q-4 14 2 24t19 14q21 7 43.5 9.5t45.5 2.5q47 0 73 -16t26 -44q0 -24 -12 -37.5t-28 -23t-28.5 -20t-14.5 -28.5q-1 -10 -12.5 -15t-29.5 -5z" />
    <glyph glyph-name="uni0202" unicode="&#x202;" horiz-adv-x="744" 
d="M52 -8q-34 0 -50 22.5t3 54.5l367 600q14 23 31 33.5t42 10.5q52 0 67 -52l172 -589q12 -40 -4.5 -60t-45.5 -20q-28 0 -42.5 14t-22.5 43l-30 114h-345l-78 -133q-23 -38 -64 -38zM430 566l-177 -301h258l-79 301h-2zM304 758q-16 2 -24.5 15t-1.5 32q21 62 70 98
t116 36q73 0 116.5 -38.5t52.5 -98.5q6 -39 -30 -44q-16 -2 -28 6t-14 24q-5 36 -32 56.5t-68 20.5q-38 0 -68.5 -19.5t-44.5 -58.5q-5 -15 -16 -23t-28 -6z" />
    <glyph glyph-name="Amacron" unicode="&#x100;" horiz-adv-x="744" 
d="M52 -8q-34 0 -50 22.5t3 54.5l367 600q14 23 31 33.5t42 10.5q52 0 67 -52l172 -589q12 -40 -4.5 -60t-45.5 -20q-28 0 -42.5 14t-22.5 43l-30 114h-345l-78 -133q-23 -38 -64 -38zM430 566l-177 -301h258l-79 301h-2zM327 806q-40 0 -40 31q0 20 12 31.5t32 11.5h277
q40 0 40 -31q0 -19 -12 -31t-32 -12h-277z" />
    <glyph glyph-name="Aogonek" unicode="&#x104;" horiz-adv-x="744" 
d="M625 -195q-54 0 -80.5 26.5t-26.5 65.5q0 72 65 119q-9 11 -14 33l-30 114h-345l-78 -133q-23 -38 -64 -38q-34 0 -50 22.5t3 54.5l367 600q14 23 31 33.5t42 10.5q52 0 67 -52l172 -589q9 -31 1 -49.5t-26 -26.5q-28 -12 -45 -31.5t-17 -45.5q0 -21 14 -34t37 -13
q8 0 16 1t18 4q21 6 29.5 -7t4.5 -30.5t-21 -23.5q-31 -11 -70 -11zM430 566l-177 -301h258l-79 301h-2z" />
    <glyph glyph-name="Aring" unicode="&#xc5;" horiz-adv-x="744" 
d="M52 -8q-34 0 -50 22.5t3 54.5l367 600q14 23 31 33.5t42 10.5q52 0 67 -52l172 -589q12 -40 -4.5 -60t-45.5 -20q-28 0 -42.5 14t-22.5 43l-30 114h-345l-78 -133q-23 -38 -64 -38zM430 566l-177 -301h258l-79 301h-2zM468 755q-35 0 -64 16.5t-45.5 44.5t-16.5 62
q0 52 36.5 87t89.5 35t89.5 -35t36.5 -87q0 -34 -16.5 -62t-45 -44.5t-64.5 -16.5zM468 812q29 0 47 19t18 47t-18 46.5t-47 18.5q-28 0 -46.5 -18.5t-18.5 -46.5t18.5 -47t46.5 -19z" />
    <glyph glyph-name="Aringacute" unicode="&#x1fa;" horiz-adv-x="744" 
d="M52 -8q-34 0 -50 22.5t3 54.5l367 600q14 23 31 33.5t42 10.5q52 0 67 -52l172 -589q12 -40 -4.5 -60t-45.5 -20q-28 0 -42.5 14t-22.5 43l-30 114h-345l-78 -133q-23 -38 -64 -38zM430 566l-177 -301h258l-79 301h-2zM456 755q-51 0 -86 34.5t-35 83.5q0 50 35 83.5
t86 33.5q35 0 63 -17l68 62q14 13 28 11.5t22.5 -11t8 -23t-14.5 -25.5l-69 -59q15 -24 15 -55q0 -49 -35 -83.5t-86 -34.5zM456 807q28 0 46.5 19t18.5 47t-18.5 46.5t-46.5 18.5t-46.5 -18.5t-18.5 -46.5t18.5 -47t46.5 -19z" />
    <glyph glyph-name="Atilde" unicode="&#xc3;" horiz-adv-x="744" 
d="M52 -8q-34 0 -50 22.5t3 54.5l367 600q14 23 31 33.5t42 10.5q52 0 67 -52l172 -589q12 -40 -4.5 -60t-45.5 -20q-28 0 -42.5 14t-22.5 43l-30 114h-345l-78 -133q-23 -38 -64 -38zM430 566l-177 -301h258l-79 301h-2zM262 770q-15 1 -22 11.5t-2 29.5q17 59 52 86t82 27
q28 0 52 -10t45.5 -23t41.5 -23t40 -10q22 0 40 11.5t26 34.5q5 14 13.5 20.5t24.5 5.5q15 -1 22 -11.5t2 -29.5q-16 -58 -52 -85.5t-83 -27.5q-28 0 -52 10t-45 23t-41 23t-40 10q-22 0 -39.5 -11.5t-26.5 -34.5q-5 -14 -13.5 -20.5t-24.5 -5.5z" />
    <glyph glyph-name="AE" unicode="&#xc6;" horiz-adv-x="993" 
d="M21 -8q-27 0 -40 12.5t-13 31t13 35.5l468 601q14 18 30.5 25.5t38.5 7.5h444q54 0 54 -41q0 -29 -16.5 -45t-44.5 -16h-356l12 -194h282q54 0 54 -41q0 -29 -16.5 -45t-43.5 -16h-271l12 -205h239q54 0 54 -41q0 -28 -16 -44.5t-45 -16.5h-282q-56 0 -59 55l-6 108h-325
l-103 -137q-25 -34 -64 -34zM488 562l-224 -297h243l-17 297h-2z" />
    <glyph glyph-name="AEacute" unicode="&#x1fc;" horiz-adv-x="993" 
d="M21 -8q-27 0 -40 12.5t-13 31t13 35.5l468 601q14 18 30.5 25.5t38.5 7.5h444q54 0 54 -41q0 -29 -16.5 -45t-44.5 -16h-356l12 -194h282q54 0 54 -41q0 -29 -16.5 -45t-43.5 -16h-271l12 -205h239q54 0 54 -41q0 -28 -16 -44.5t-45 -16.5h-282q-56 0 -59 55l-6 108h-325
l-103 -137q-25 -34 -64 -34zM488 562l-224 -297h243l-17 297h-2zM609 771q-18 -18 -37 -13.5t-27 21.5t6 36l85 113q17 22 37.5 24t36 -10t18.5 -30.5t-15 -36.5z" />
    <glyph glyph-name="B" unicode="B" horiz-adv-x="688" 
d="M112 0q-34 0 -50.5 19.5t-11.5 53.5l90 570q9 62 73 62h227q117 0 169.5 -46.5t52.5 -120.5q0 -68 -38.5 -114.5t-102.5 -64.5q51 -18 79 -57t28 -92q0 -103 -68 -156.5t-188 -53.5h-260zM226 406h171q67 0 104 30t37 87q0 41 -28.5 63t-89.5 22h-162zM176 97h190
q69 0 103.5 31t34.5 89q0 46 -30.5 69t-88.5 23h-175z" />
    <glyph glyph-name="uni0181" unicode="&#x181;" horiz-adv-x="838" 
d="M263 0q-35 0 -51.5 19.5t-11.5 53.5l86 541h-27q-49 0 -74.5 -22.5t-35.5 -74.5l-4 -21q-3 -16 -16.5 -25.5t-36.5 -9.5q-28 0 -40 15t-8 40l3 21q12 85 65 126.5t158 41.5h320q117 0 169.5 -46.5t52.5 -120.5q0 -68 -38.5 -114.5t-102.5 -64.5q51 -18 79 -57t28 -92
q0 -103 -68 -156.5t-188 -53.5h-259zM376 406h171q67 0 104 30t37 87q0 41 -28.5 63t-89.5 22h-162zM326 97h190q69 0 103.5 31t34.5 89q0 46 -30.5 69t-88.5 23h-175z" />
    <glyph glyph-name="C" unicode="C" horiz-adv-x="680" 
d="M393 -10q-94 0 -166.5 35.5t-114 106.5t-41.5 178q0 86 25.5 159.5t74 128.5t119.5 86t161 31q58 0 111 -15t93 -44q22 -16 24.5 -38.5t-9 -42t-30.5 -27t-40 6.5q-39 26 -76 36t-77 10q-77 0 -130.5 -37.5t-81.5 -102.5t-28 -147q0 -111 50.5 -160.5t147.5 -49.5
q37 0 71 9t70 30q25 15 44.5 8t28.5 -26t5 -40.5t-27 -36.5q-44 -29 -99 -43.5t-105 -14.5z" />
    <glyph glyph-name="Cacute" unicode="&#x106;" horiz-adv-x="680" 
d="M393 -10q-94 0 -166.5 35.5t-114 106.5t-41.5 178q0 86 25.5 159.5t74 128.5t119.5 86t161 31q58 0 111 -15t93 -44q22 -16 24.5 -38.5t-9 -42t-30.5 -27t-40 6.5q-39 26 -76 36t-77 10q-77 0 -130.5 -37.5t-81.5 -102.5t-28 -147q0 -111 50.5 -160.5t147.5 -49.5
q37 0 71 9t70 30q25 15 44.5 8t28.5 -26t5 -40.5t-27 -36.5q-44 -29 -99 -43.5t-105 -14.5zM503 771q-18 -18 -37 -13.5t-27 21.5t6 36l85 113q17 22 37.5 24t36 -10t18.5 -30.5t-15 -36.5z" />
    <glyph glyph-name="Ccaron" unicode="&#x10c;" horiz-adv-x="680" 
d="M393 -10q-94 0 -166.5 35.5t-114 106.5t-41.5 178q0 86 25.5 159.5t74 128.5t119.5 86t161 31q58 0 111 -15t93 -44q22 -16 24.5 -38.5t-9 -42t-30.5 -27t-40 6.5q-39 26 -76 36t-77 10q-77 0 -130.5 -37.5t-81.5 -102.5t-28 -147q0 -111 50.5 -160.5t147.5 -49.5
q37 0 71 9t70 30q25 15 44.5 8t28.5 -26t5 -40.5t-27 -36.5q-44 -29 -99 -43.5t-105 -14.5zM449 753q-24 0 -40.5 12t-30.5 34l-60 96q-10 17 -6 30t16.5 19.5t28 3t27.5 -19.5l72 -93l96 100q12 13 27 14t27 -6.5t15 -19.5t-8 -26l-83 -102q-33 -42 -81 -42z" />
    <glyph glyph-name="Ccedilla" unicode="&#xc7;" horiz-adv-x="680" 
d="M393 -10q-94 0 -166.5 35.5t-114 106.5t-41.5 178q0 86 25.5 159.5t74 128.5t119.5 86t161 31q58 0 111 -15t93 -44q22 -16 24.5 -38.5t-9 -42t-30.5 -27t-40 6.5q-39 26 -76 36t-77 10q-77 0 -130.5 -37.5t-81.5 -102.5t-28 -147q0 -111 50.5 -160.5t147.5 -49.5
q37 0 71 9t70 30q25 15 44.5 8t28.5 -26t5 -40.5t-27 -36.5q-44 -29 -99 -43.5t-105 -14.5zM350 -195q-37 0 -72 9q-16 4 -21.5 15.5t-2.5 23.5t13.5 18.5t26.5 1.5q24 -8 51 -8q57 0 57 32q0 21 -34 21q-13 0 -30 -3q-18 -3 -24 3q-7 7 -3 23l25 79h66l-18 -57h9
q39 0 61 -17t22 -49q0 -42 -36 -67t-90 -25z" />
    <glyph glyph-name="uni1E08" unicode="&#x1e08;" horiz-adv-x="680" 
d="M393 -10q-94 0 -166.5 35.5t-114 106.5t-41.5 178q0 86 25.5 159.5t74 128.5t119.5 86t161 31q58 0 111 -15t93 -44q22 -16 24.5 -38.5t-9 -42t-30.5 -27t-40 6.5q-39 26 -76 36t-77 10q-77 0 -130.5 -37.5t-81.5 -102.5t-28 -147q0 -111 50.5 -160.5t147.5 -49.5
q37 0 71 9t70 30q25 15 44.5 8t28.5 -26t5 -40.5t-27 -36.5q-44 -29 -99 -43.5t-105 -14.5zM350 -195q-37 0 -72 9q-16 4 -21.5 15.5t-2.5 23.5t13.5 18.5t26.5 1.5q24 -8 51 -8q57 0 57 32q0 21 -34 21q-13 0 -30 -3q-18 -3 -24 3q-7 7 -3 23l25 79h66l-18 -57h9
q39 0 61 -17t22 -49q0 -42 -36 -67t-90 -25zM503 771q-18 -18 -37 -13.5t-27 21.5t6 36l85 113q17 22 37.5 24t36 -10t18.5 -30.5t-15 -36.5z" />
    <glyph glyph-name="Ccircumflex" unicode="&#x108;" horiz-adv-x="680" 
d="M393 -10q-94 0 -166.5 35.5t-114 106.5t-41.5 178q0 86 25.5 159.5t74 128.5t119.5 86t161 31q58 0 111 -15t93 -44q22 -16 24.5 -38.5t-9 -42t-30.5 -27t-40 6.5q-39 26 -76 36t-77 10q-77 0 -130.5 -37.5t-81.5 -102.5t-28 -147q0 -111 50.5 -160.5t147.5 -49.5
q37 0 71 9t70 30q25 15 44.5 8t28.5 -26t5 -40.5t-27 -36.5q-44 -29 -99 -43.5t-105 -14.5zM360 770q-16 -17 -35.5 -14t-28 18.5t6.5 33.5l83 103q34 41 80 41q24 0 41 -12t30 -35l59 -95q11 -17 6.5 -30.5t-17.5 -20t-29 -3.5t-28 19l-71 94z" />
    <glyph glyph-name="Cdotaccent" unicode="&#x10a;" horiz-adv-x="680" 
d="M393 -10q-94 0 -166.5 35.5t-114 106.5t-41.5 178q0 86 25.5 159.5t74 128.5t119.5 86t161 31q58 0 111 -15t93 -44q22 -16 24.5 -38.5t-9 -42t-30.5 -27t-40 6.5q-39 26 -76 36t-77 10q-77 0 -130.5 -37.5t-81.5 -102.5t-28 -147q0 -111 50.5 -160.5t147.5 -49.5
q37 0 71 9t70 30q25 15 44.5 8t28.5 -26t5 -40.5t-27 -36.5q-44 -29 -99 -43.5t-105 -14.5zM456 789q-57 0 -57 50q0 35 20.5 55t56.5 20q57 0 57 -49q0 -34 -20.5 -55t-56.5 -21z" />
    <glyph glyph-name="D" unicode="D" horiz-adv-x="762" 
d="M112 0q-34 0 -51 19.5t-11 53.5l90 570q11 62 73 62h163q168 0 259.5 -79t91.5 -222q0 -113 -44.5 -205t-134 -145.5t-225.5 -53.5h-211zM183 106h142q94 0 153 39t87 106t28 151q0 96 -54.5 146.5t-162.5 50.5h-115z" />
    <glyph glyph-name="uni01C4" unicode="&#x1c4;" horiz-adv-x="1352" 
d="M112 0q-34 0 -51 19.5t-11 53.5l90 570q11 62 73 62h163q168 0 259.5 -79t91.5 -222q0 -113 -44.5 -205t-134 -145.5t-225.5 -53.5h-211zM183 106h142q94 0 153 39t87 106t28 151q0 96 -54.5 146.5t-162.5 50.5h-115zM816 0q-27 0 -41.5 18t-10.5 46t31 59l419 475h-308
q-56 0 -56 44q0 31 17.5 47t46.5 16h409q34 0 49 -18t10 -45.5t-31 -57.5l-421 -477h323q57 0 57 -43q0 -31 -17.5 -47.5t-46.5 -16.5h-430zM1129 753q-24 0 -40.5 12t-30.5 34l-60 96q-10 17 -6 30t16.5 19.5t28 3t27.5 -19.5l72 -93l96 100q12 13 27 14t27 -6.5t15 -19.5
t-8 -26l-83 -102q-33 -42 -81 -42z" />
    <glyph glyph-name="Eth" unicode="&#xd0;" horiz-adv-x="762" 
d="M112 0q-34 0 -51 19.5t-11 53.5l90 570q11 62 73 62h163q168 0 259.5 -79t91.5 -222q0 -113 -44.5 -205t-134 -145.5t-225.5 -53.5h-211zM183 106h142q94 0 153 39t87 106t28 151q0 96 -54.5 146.5t-162.5 50.5h-115zM51 310q-52 0 -52 39q0 26 15.5 40.5t42.5 14.5h312
q52 0 52 -38q0 -26 -15.5 -41t-42.5 -15h-312z" />
    <glyph glyph-name="Dcaron" unicode="&#x10e;" horiz-adv-x="762" 
d="M112 0q-34 0 -51 19.5t-11 53.5l90 570q11 62 73 62h163q168 0 259.5 -79t91.5 -222q0 -113 -44.5 -205t-134 -145.5t-225.5 -53.5h-211zM183 106h142q94 0 153 39t87 106t28 151q0 96 -54.5 146.5t-162.5 50.5h-115zM450 753q-24 0 -40.5 12t-30.5 34l-60 96
q-10 17 -6 30t16.5 19.5t28 3t27.5 -19.5l72 -93l96 100q12 13 27 14t27 -6.5t15 -19.5t-8 -26l-83 -102q-33 -42 -81 -42z" />
    <glyph glyph-name="Dcroat" unicode="&#x110;" horiz-adv-x="762" 
d="M112 0q-34 0 -51 19.5t-11 53.5l90 570q11 62 73 62h163q168 0 259.5 -79t91.5 -222q0 -113 -44.5 -205t-134 -145.5t-225.5 -53.5h-211zM183 106h142q94 0 153 39t87 106t28 151q0 96 -54.5 146.5t-162.5 50.5h-115zM51 310q-52 0 -52 39q0 26 15.5 40.5t42.5 14.5h312
q52 0 52 -38q0 -26 -15.5 -41t-42.5 -15h-312z" />
    <glyph glyph-name="uni1E0C" unicode="&#x1e0c;" horiz-adv-x="762" 
d="M112 0q-34 0 -51 19.5t-11 53.5l90 570q11 62 73 62h163q168 0 259.5 -79t91.5 -222q0 -113 -44.5 -205t-134 -145.5t-225.5 -53.5h-211zM183 106h142q94 0 153 39t87 106t28 151q0 96 -54.5 146.5t-162.5 50.5h-115zM311 -209q-56 0 -56 50q0 35 20.5 55t55.5 20
q57 0 57 -49q0 -34 -20.5 -55t-56.5 -21z" />
    <glyph glyph-name="uni018A" unicode="&#x18a;" horiz-adv-x="913" 
d="M263 0q-35 0 -51.5 19.5t-11.5 53.5l86 541h-27q-47 0 -74.5 -22.5t-35.5 -74.5l-4 -21q-2 -16 -16 -25.5t-37 -9.5q-28 0 -40 15t-8 40l3 21q14 85 66.5 126.5t156.5 41.5h256q168 0 259.5 -79t91.5 -222q0 -113 -44.5 -205t-134 -145.5t-225.5 -53.5h-210zM333 106h142
q94 0 153 39t87 106t28 151q0 96 -54.5 146.5t-162.5 50.5h-115z" />
    <glyph glyph-name="uni1E0E" unicode="&#x1e0e;" horiz-adv-x="762" 
d="M112 0q-34 0 -51 19.5t-11 53.5l90 570q11 62 73 62h163q168 0 259.5 -79t91.5 -222q0 -113 -44.5 -205t-134 -145.5t-225.5 -53.5h-211zM183 106h142q94 0 153 39t87 106t28 151q0 96 -54.5 146.5t-162.5 50.5h-115zM200 -165q-40 0 -40 31q0 20 12 31.5t32 11.5h247
q40 0 40 -31q0 -19 -12 -31t-32 -12h-247z" />
    <glyph glyph-name="uni01C5" unicode="&#x1c5;" horiz-adv-x="1236" 
d="M112 0q-34 0 -51 19.5t-11 53.5l90 570q11 62 73 62h163q168 0 259.5 -79t91.5 -222q0 -113 -44.5 -205t-134 -145.5t-225.5 -53.5h-211zM183 106h142q94 0 153 39t87 106t28 151q0 96 -54.5 146.5t-162.5 50.5h-115zM831 0q-27 0 -41.5 14.5t-13 36.5t21.5 43l281 301
h-195q-50 0 -50 39q0 26 15.5 40.5t40.5 14.5h289q29 0 43 -14.5t11.5 -37t-24.5 -45.5l-279 -298h207q50 0 50 -39q0 -25 -15 -40t-41 -15h-300zM1049 539q-48 0 -67 46l-57 132q-7 17 -1.5 30t18 19t26.5 2.5t22 -18.5l66 -125l97 127q15 19 33.5 17.5t28 -16.5t-4.5 -37
l-84 -129q-31 -48 -77 -48z" />
    <glyph glyph-name="E" unicode="E" horiz-adv-x="597" 
d="M113 0q-74 0 -63 73l90 570q9 62 73 62h353q54 0 54 -41q0 -29 -16.5 -45t-43.5 -16h-303l-31 -194h272q53 0 53 -41q0 -29 -16.5 -45t-43.5 -16h-281l-33 -205h293q54 0 54 -41q0 -29 -16.5 -45t-43.5 -16h-351z" />
    <glyph glyph-name="Eacute" unicode="&#xc9;" horiz-adv-x="597" 
d="M113 0q-74 0 -63 73l90 570q9 62 73 62h353q54 0 54 -41q0 -29 -16.5 -45t-43.5 -16h-303l-31 -194h272q53 0 53 -41q0 -29 -16.5 -45t-43.5 -16h-281l-33 -205h293q54 0 54 -41q0 -29 -16.5 -45t-43.5 -16h-351zM462 771q-18 -18 -37 -13.5t-27 21.5t6 36l85 113
q17 22 37.5 24t36 -10t18.5 -30.5t-15 -36.5z" />
    <glyph glyph-name="Ebreve" unicode="&#x114;" horiz-adv-x="597" 
d="M113 0q-74 0 -63 73l90 570q9 62 73 62h353q54 0 54 -41q0 -29 -16.5 -45t-43.5 -16h-303l-31 -194h272q53 0 53 -41q0 -29 -16.5 -45t-43.5 -16h-281l-33 -205h293q54 0 54 -41q0 -29 -16.5 -45t-43.5 -16h-351zM416 760q-73 0 -116 38.5t-53 98.5q-6 39 30 44
q17 2 28.5 -5.5t13.5 -24.5q5 -36 32 -56t68 -20q38 0 69 19t44 58q5 15 16 23t28 6t25 -14.5t1 -32.5q-20 -61 -69.5 -97.5t-116.5 -36.5z" />
    <glyph glyph-name="Ecaron" unicode="&#x11a;" horiz-adv-x="597" 
d="M113 0q-74 0 -63 73l90 570q9 62 73 62h353q54 0 54 -41q0 -29 -16.5 -45t-43.5 -16h-303l-31 -194h272q53 0 53 -41q0 -29 -16.5 -45t-43.5 -16h-281l-33 -205h293q54 0 54 -41q0 -29 -16.5 -45t-43.5 -16h-351zM408 753q-24 0 -40.5 12t-30.5 34l-60 96q-10 17 -6 30
t16.5 19.5t28 3t27.5 -19.5l72 -93l96 100q12 13 27 14t27 -6.5t15 -19.5t-8 -26l-83 -102q-33 -42 -81 -42z" />
    <glyph glyph-name="uni0228" unicode="&#x228;" horiz-adv-x="597" 
d="M113 0q-74 0 -63 73l90 570q9 62 73 62h353q54 0 54 -41q0 -29 -16.5 -45t-43.5 -16h-303l-31 -194h272q53 0 53 -41q0 -29 -16.5 -45t-43.5 -16h-281l-33 -205h293q54 0 54 -41q0 -29 -16.5 -45t-43.5 -16h-351zM274 -195q-37 0 -72 9q-16 4 -21.5 15.5t-2.5 23.5
t13.5 18.5t26.5 1.5q24 -8 51 -8q57 0 57 32q0 21 -34 21q-13 0 -30 -3q-18 -3 -24 3q-7 7 -3 23l25 79h66l-18 -57h9q39 0 61 -17t22 -49q0 -42 -36 -67t-90 -25z" />
    <glyph glyph-name="uni1E1C" unicode="&#x1e1c;" horiz-adv-x="597" 
d="M113 0q-74 0 -63 73l90 570q9 62 73 62h353q54 0 54 -41q0 -29 -16.5 -45t-43.5 -16h-303l-31 -194h272q53 0 53 -41q0 -29 -16.5 -45t-43.5 -16h-281l-33 -205h293q54 0 54 -41q0 -29 -16.5 -45t-43.5 -16h-351zM274 -195q-37 0 -72 9q-16 4 -21.5 15.5t-2.5 23.5
t13.5 18.5t26.5 1.5q24 -8 51 -8q57 0 57 32q0 21 -34 21q-13 0 -30 -3q-18 -3 -24 3q-7 7 -3 23l25 79h66l-18 -57h9q39 0 61 -17t22 -49q0 -42 -36 -67t-90 -25zM416 760q-73 0 -116 38.5t-53 98.5q-6 39 30 44q17 2 28.5 -5.5t13.5 -24.5q5 -36 32 -56t68 -20q38 0 69 19
t44 58q5 15 16 23t28 6t25 -14.5t1 -32.5q-20 -61 -69.5 -97.5t-116.5 -36.5z" />
    <glyph glyph-name="Ecircumflex" unicode="&#xca;" horiz-adv-x="597" 
d="M113 0q-74 0 -63 73l90 570q9 62 73 62h353q54 0 54 -41q0 -29 -16.5 -45t-43.5 -16h-303l-31 -194h272q53 0 53 -41q0 -29 -16.5 -45t-43.5 -16h-281l-33 -205h293q54 0 54 -41q0 -29 -16.5 -45t-43.5 -16h-351zM319 770q-16 -17 -35.5 -14t-28 18.5t6.5 33.5l83 103
q34 41 80 41q24 0 41 -12t30 -35l59 -95q11 -17 6.5 -30.5t-17.5 -20t-29 -3.5t-28 19l-71 94z" />
    <glyph glyph-name="uni1EBE" unicode="&#x1ebe;" horiz-adv-x="597" 
d="M113 0q-74 0 -63 73l90 570q9 62 73 62h353q54 0 54 -41q0 -29 -16.5 -45t-43.5 -16h-303l-31 -194h272q53 0 53 -41q0 -29 -16.5 -45t-43.5 -16h-281l-33 -205h293q54 0 54 -41q0 -29 -16.5 -45t-43.5 -16h-351zM593 866q-13 -15 -29 -13t-23.5 15t3.5 31l74 115
q12 18 28.5 20t30 -7.5t17 -25t-11.5 -32.5zM324 767q-16 -16 -32.5 -11.5t-23.5 19t4 28.5l72 93q15 19 35 29.5t47 10.5q33 0 49 -14t26 -32l51 -87q11 -18 1 -32t-28.5 -16t-32.5 15l-74 91z" />
    <glyph glyph-name="uni1EC6" unicode="&#x1ec6;" horiz-adv-x="597" 
d="M113 0q-74 0 -63 73l90 570q9 62 73 62h353q54 0 54 -41q0 -29 -16.5 -45t-43.5 -16h-303l-31 -194h272q53 0 53 -41q0 -29 -16.5 -45t-43.5 -16h-281l-33 -205h293q54 0 54 -41q0 -29 -16.5 -45t-43.5 -16h-351zM261 -209q-56 0 -56 50q0 35 20.5 55t55.5 20
q57 0 57 -49q0 -34 -20.5 -55t-56.5 -21zM319 770q-16 -17 -35.5 -14t-28 18.5t6.5 33.5l83 103q34 41 80 41q24 0 41 -12t30 -35l59 -95q11 -17 6.5 -30.5t-17.5 -20t-29 -3.5t-28 19l-71 94z" />
    <glyph glyph-name="uni1EC0" unicode="&#x1ec0;" horiz-adv-x="597" 
d="M113 0q-74 0 -63 73l90 570q9 62 73 62h353q54 0 54 -41q0 -29 -16.5 -45t-43.5 -16h-303l-31 -194h272q53 0 53 -41q0 -29 -16.5 -45t-43.5 -16h-281l-33 -205h293q54 0 54 -41q0 -29 -16.5 -45t-43.5 -16h-351zM569 868l-73 105q-12 17 -5.5 32.5t22 23.5t32.5 5
t26 -23l54 -112q10 -19 0 -32t-27 -14t-29 15zM324 767q-16 -16 -32.5 -11.5t-23.5 19t4 28.5l72 93q15 19 35 29.5t47 10.5q33 0 49 -14t26 -32l51 -87q11 -18 1 -32t-28.5 -16t-32.5 15l-74 91z" />
    <glyph glyph-name="uni1EC2" unicode="&#x1ec2;" horiz-adv-x="597" 
d="M113 0q-74 0 -63 73l90 570q9 62 73 62h353q54 0 54 -41q0 -29 -16.5 -45t-43.5 -16h-303l-31 -194h272q53 0 53 -41q0 -29 -16.5 -45t-43.5 -16h-281l-33 -205h293q54 0 54 -41q0 -29 -16.5 -45t-43.5 -16h-351zM587 870q-17 -8 -32.5 -4.5t-19.5 14t11 20.5
q20 14 31.5 25.5t11.5 24.5q0 11 -9 16.5t-23 5.5q-9 0 -19 -1t-20 -3q-13 -2 -22 0.5t-12 14.5q-6 24 20 33q17 5 36 7.5t40 2.5q47 0 69.5 -15.5t22.5 -41.5q0 -21 -13 -40t-32.5 -34t-39.5 -25zM324 767q-16 -16 -32.5 -11.5t-23.5 19t4 28.5l72 93q15 19 35 29.5
t47 10.5q33 0 49 -14t26 -32l51 -87q11 -18 1 -32t-28.5 -16t-32.5 15l-74 91z" />
    <glyph glyph-name="uni1EC4" unicode="&#x1ec4;" horiz-adv-x="597" 
d="M113 0q-74 0 -63 73l90 570q9 62 73 62h353q54 0 54 -41q0 -29 -16.5 -45t-43.5 -16h-303l-31 -194h272q53 0 53 -41q0 -29 -16.5 -45t-43.5 -16h-281l-33 -205h293q54 0 54 -41q0 -29 -16.5 -45t-43.5 -16h-351zM286 919q-14 1 -21 11.5t-1 27.5q26 75 103 75
q26 0 48 -11t41.5 -22t37.5 -11q16 0 29 6t19 21q8 22 35 21q14 -1 21 -11.5t1 -27.5q-26 -75 -103 -75q-26 0 -48.5 11t-41.5 22t-37 11q-16 0 -29 -6t-19 -21q-8 -22 -35 -21zM318 763q-18 -13 -32.5 -9t-19 17.5t8.5 27.5l69 75q14 15 32 27.5t49 12.5q32 0 45.5 -14.5
t26.5 -31.5l54 -72q12 -15 4 -27.5t-25 -14.5t-34 12l-80 71z" />
    <glyph glyph-name="uni0204" unicode="&#x204;" horiz-adv-x="597" 
d="M113 0q-74 0 -63 73l90 570q9 62 73 62h353q54 0 54 -41q0 -29 -16.5 -45t-43.5 -16h-303l-31 -194h272q53 0 53 -41q0 -29 -16.5 -45t-43.5 -16h-281l-33 -205h293q54 0 54 -41q0 -29 -16.5 -45t-43.5 -16h-351zM444 773l-71 111q-13 21 -6 38.5t24.5 25.5t36 3
t28.5 -29l48 -118q8 -19 -2.5 -33t-28 -15.5t-29.5 17.5zM297 774l-78 112q-14 20 -7.5 37t24 25t36.5 2.5t29 -28.5l55 -120q9 -19 -1 -32.5t-27 -14t-31 18.5z" />
    <glyph glyph-name="Edieresis" unicode="&#xcb;" horiz-adv-x="597" 
d="M113 0q-74 0 -63 73l90 570q9 62 73 62h353q54 0 54 -41q0 -29 -16.5 -45t-43.5 -16h-303l-31 -194h272q53 0 53 -41q0 -29 -16.5 -45t-43.5 -16h-281l-33 -205h293q54 0 54 -41q0 -29 -16.5 -45t-43.5 -16h-351zM509 786q-54 0 -54 48q0 34 19 54.5t53 20.5q54 0 54 -48
q0 -34 -18.5 -54.5t-53.5 -20.5zM320 786q-53 0 -53 48q0 34 19 54.5t53 20.5q53 0 53 -48q0 -34 -18.5 -54.5t-53.5 -20.5z" />
    <glyph glyph-name="Edotaccent" unicode="&#x116;" horiz-adv-x="597" 
d="M113 0q-74 0 -63 73l90 570q9 62 73 62h353q54 0 54 -41q0 -29 -16.5 -45t-43.5 -16h-303l-31 -194h272q53 0 53 -41q0 -29 -16.5 -45t-43.5 -16h-281l-33 -205h293q54 0 54 -41q0 -29 -16.5 -45t-43.5 -16h-351zM415 789q-57 0 -57 50q0 35 20.5 55t56.5 20q57 0 57 -49
q0 -34 -20.5 -55t-56.5 -21z" />
    <glyph glyph-name="uni1EB8" unicode="&#x1eb8;" horiz-adv-x="597" 
d="M113 0q-74 0 -63 73l90 570q9 62 73 62h353q54 0 54 -41q0 -29 -16.5 -45t-43.5 -16h-303l-31 -194h272q53 0 53 -41q0 -29 -16.5 -45t-43.5 -16h-281l-33 -205h293q54 0 54 -41q0 -29 -16.5 -45t-43.5 -16h-351zM261 -209q-56 0 -56 50q0 35 20.5 55t55.5 20
q57 0 57 -49q0 -34 -20.5 -55t-56.5 -21z" />
    <glyph glyph-name="Egrave" unicode="&#xc8;" horiz-adv-x="597" 
d="M113 0q-74 0 -63 73l90 570q9 62 73 62h353q54 0 54 -41q0 -29 -16.5 -45t-43.5 -16h-303l-31 -194h272q53 0 53 -41q0 -29 -16.5 -45t-43.5 -16h-281l-33 -205h293q54 0 54 -41q0 -29 -16.5 -45t-43.5 -16h-351zM360 773l-83 100q-17 21 -12.5 40t22 30.5t38 8
t34.5 -27.5l65 -106q9 -16 5 -30t-16 -22.5t-26.5 -7.5t-26.5 15z" />
    <glyph glyph-name="uni1EBA" unicode="&#x1eba;" horiz-adv-x="597" 
d="M113 0q-74 0 -63 73l90 570q9 62 73 62h353q54 0 54 -41q0 -29 -16.5 -45t-43.5 -16h-303l-31 -194h272q53 0 53 -41q0 -29 -16.5 -45t-43.5 -16h-281l-33 -205h293q54 0 54 -41q0 -29 -16.5 -45t-43.5 -16h-351zM409 757q-37 0 -34 26q3 24 19 37t30.5 23t14.5 24
q0 18 -38 18q-8 0 -18 -1t-20 -4q-16 -5 -24.5 -1t-13.5 17q-4 14 2 24t19 14q21 7 43.5 9.5t45.5 2.5q47 0 73 -16t26 -44q0 -24 -12 -37.5t-28 -23t-28.5 -20t-14.5 -28.5q-1 -10 -12.5 -15t-29.5 -5z" />
    <glyph glyph-name="uni0206" unicode="&#x206;" horiz-adv-x="597" 
d="M113 0q-74 0 -63 73l90 570q9 62 73 62h353q54 0 54 -41q0 -29 -16.5 -45t-43.5 -16h-303l-31 -194h272q53 0 53 -41q0 -29 -16.5 -45t-43.5 -16h-281l-33 -205h293q54 0 54 -41q0 -29 -16.5 -45t-43.5 -16h-351zM260 758q-16 2 -24.5 15t-1.5 32q21 62 70 98t116 36
q73 0 116.5 -38.5t52.5 -98.5q6 -39 -30 -44q-16 -2 -28 6t-14 24q-5 36 -32 56.5t-68 20.5q-38 0 -68.5 -19.5t-44.5 -58.5q-5 -15 -16 -23t-28 -6z" />
    <glyph glyph-name="Emacron" unicode="&#x112;" horiz-adv-x="597" 
d="M113 0q-74 0 -63 73l90 570q9 62 73 62h353q54 0 54 -41q0 -29 -16.5 -45t-43.5 -16h-303l-31 -194h272q53 0 53 -41q0 -29 -16.5 -45t-43.5 -16h-281l-33 -205h293q54 0 54 -41q0 -29 -16.5 -45t-43.5 -16h-351zM283 806q-40 0 -40 31q0 20 12 31.5t32 11.5h277
q40 0 40 -31q0 -19 -12 -31t-32 -12h-277z" />
    <glyph glyph-name="uni1E16" unicode="&#x1e16;" horiz-adv-x="597" 
d="M113 0q-74 0 -63 73l90 570q9 62 73 62h353q54 0 54 -41q0 -29 -16.5 -45t-43.5 -16h-303l-31 -194h272q53 0 53 -41q0 -29 -16.5 -45t-43.5 -16h-281l-33 -205h293q54 0 54 -41q0 -29 -16.5 -45t-43.5 -16h-351zM471 895q-16 -17 -34 -15t-25.5 17.5t6.5 36.5l55 86
q14 21 33 23.5t34.5 -8t19 -28t-14.5 -35.5zM297 783q-40 0 -40 31q0 19 11.5 31t33.5 12h239q41 0 41 -31q0 -19 -11.5 -31t-33.5 -12h-240z" />
    <glyph glyph-name="uni1E14" unicode="&#x1e14;" horiz-adv-x="597" 
d="M113 0q-74 0 -63 73l90 570q9 62 73 62h353q54 0 54 -41q0 -29 -16.5 -45t-43.5 -16h-303l-31 -194h272q53 0 53 -41q0 -29 -16.5 -45t-43.5 -16h-281l-33 -205h293q54 0 54 -41q0 -29 -16.5 -45t-43.5 -16h-351zM390 897l-58 75q-15 20 -9 38t23.5 27.5t37 5t31.5 -29.5
l39 -84q10 -21 -1 -35t-29.5 -14.5t-33.5 17.5zM297 783q-40 0 -40 31q0 19 11.5 31t33.5 12h239q41 0 41 -31q0 -19 -11.5 -31t-33.5 -12h-240z" />
    <glyph glyph-name="Eogonek" unicode="&#x118;" horiz-adv-x="597" 
d="M113 0q-74 0 -63 73l90 570q9 62 73 62h353q54 0 54 -41q0 -29 -16.5 -45t-43.5 -16h-303l-31 -194h272q53 0 53 -41q0 -29 -16.5 -45t-43.5 -16h-281l-33 -205h293q54 0 54 -41q0 -29 -16.5 -45t-43.5 -16h-351zM417 -195q-54 0 -80.5 26.5t-26.5 65.5q0 96 112 145
l34 -42q-31 -13 -49 -34t-18 -47q0 -21 14 -34t37 -13q8 0 16 1t18 4q21 6 29.5 -7t4.5 -30.5t-21 -23.5q-31 -11 -70 -11z" />
    <glyph glyph-name="uni1EBC" unicode="&#x1ebc;" horiz-adv-x="597" 
d="M113 0q-74 0 -63 73l90 570q9 62 73 62h353q54 0 54 -41q0 -29 -16.5 -45t-43.5 -16h-303l-31 -194h272q53 0 53 -41q0 -29 -16.5 -45t-43.5 -16h-281l-33 -205h293q54 0 54 -41q0 -29 -16.5 -45t-43.5 -16h-351zM218 770q-15 1 -22 11.5t-2 29.5q17 59 52 86t82 27
q28 0 52 -10t45.5 -23t41.5 -23t40 -10q22 0 40 11.5t26 34.5q5 14 13.5 20.5t24.5 5.5q15 -1 22 -11.5t2 -29.5q-16 -58 -52 -85.5t-83 -27.5q-28 0 -52 10t-45 23t-41 23t-40 10q-22 0 -39.5 -11.5t-26.5 -34.5q-5 -14 -13.5 -20.5t-24.5 -5.5z" />
    <glyph glyph-name="F" unicode="F" horiz-adv-x="562" 
d="M107 -8q-33 0 -48 19.5t-10 53.5l91 578q9 62 73 62h342q54 0 54 -41q0 -28 -15.5 -44.5t-44.5 -16.5h-286l-32 -199h255q54 0 54 -41q0 -28 -15.5 -44.5t-44.5 -16.5h-265l-39 -247q-10 -63 -69 -63z" />
    <glyph glyph-name="G" unicode="G" horiz-adv-x="736" 
d="M398 -10q-98 0 -172 36t-115 106t-41 171q0 120 46 213t133.5 146t210.5 53q124 0 206 -54q24 -16 28 -39.5t-7 -43.5t-31.5 -27.5t-44.5 8.5q-67 44 -158 44q-79 0 -134.5 -38.5t-85 -105t-29.5 -151.5q0 -106 55 -157t157 -51q33 0 63.5 5t60.5 14l27 167h-109
q-25 0 -39.5 11t-14.5 30q0 26 16 40t44 14h163q29 0 43 -16t9 -45l-38 -240q-7 -46 -48 -60t-93 -22t-102 -8z" />
    <glyph glyph-name="Gbreve" unicode="&#x11e;" horiz-adv-x="736" 
d="M398 -10q-98 0 -172 36t-115 106t-41 171q0 120 46 213t133.5 146t210.5 53q124 0 206 -54q24 -16 28 -39.5t-7 -43.5t-31.5 -27.5t-44.5 8.5q-67 44 -158 44q-79 0 -134.5 -38.5t-85 -105t-29.5 -151.5q0 -106 55 -157t157 -51q33 0 63.5 5t60.5 14l27 167h-109
q-25 0 -39.5 11t-14.5 30q0 26 16 40t44 14h163q29 0 43 -16t9 -45l-38 -240q-7 -46 -48 -60t-93 -22t-102 -8zM462 760q-73 0 -116 38.5t-53 98.5q-6 39 30 44q17 2 28.5 -5.5t13.5 -24.5q5 -36 32 -56t68 -20q38 0 69 19t44 58q5 15 16 23t28 6t25 -14.5t1 -32.5
q-20 -61 -69.5 -97.5t-116.5 -36.5z" />
    <glyph glyph-name="Gcaron" unicode="&#x1e6;" horiz-adv-x="736" 
d="M398 -10q-98 0 -172 36t-115 106t-41 171q0 120 46 213t133.5 146t210.5 53q124 0 206 -54q24 -16 28 -39.5t-7 -43.5t-31.5 -27.5t-44.5 8.5q-67 44 -158 44q-79 0 -134.5 -38.5t-85 -105t-29.5 -151.5q0 -106 55 -157t157 -51q33 0 63.5 5t60.5 14l27 167h-109
q-25 0 -39.5 11t-14.5 30q0 26 16 40t44 14h163q29 0 43 -16t9 -45l-38 -240q-7 -46 -48 -60t-93 -22t-102 -8zM454 753q-24 0 -40.5 12t-30.5 34l-60 96q-10 17 -6 30t16.5 19.5t28 3t27.5 -19.5l72 -93l96 100q12 13 27 14t27 -6.5t15 -19.5t-8 -26l-83 -102
q-33 -42 -81 -42z" />
    <glyph glyph-name="Gcircumflex" unicode="&#x11c;" horiz-adv-x="736" 
d="M398 -10q-98 0 -172 36t-115 106t-41 171q0 120 46 213t133.5 146t210.5 53q124 0 206 -54q24 -16 28 -39.5t-7 -43.5t-31.5 -27.5t-44.5 8.5q-67 44 -158 44q-79 0 -134.5 -38.5t-85 -105t-29.5 -151.5q0 -106 55 -157t157 -51q33 0 63.5 5t60.5 14l27 167h-109
q-25 0 -39.5 11t-14.5 30q0 26 16 40t44 14h163q29 0 43 -16t9 -45l-38 -240q-7 -46 -48 -60t-93 -22t-102 -8zM365 770q-16 -17 -35.5 -14t-28 18.5t6.5 33.5l83 103q34 41 80 41q24 0 41 -12t30 -35l59 -95q11 -17 6.5 -30.5t-17.5 -20t-29 -3.5t-28 19l-71 94z" />
    <glyph glyph-name="uni0122" unicode="&#x122;" horiz-adv-x="736" 
d="M398 -10q-98 0 -172 36t-115 106t-41 171q0 120 46 213t133.5 146t210.5 53q124 0 206 -54q24 -16 28 -39.5t-7 -43.5t-31.5 -27.5t-44.5 8.5q-67 44 -158 44q-79 0 -134.5 -38.5t-85 -105t-29.5 -151.5q0 -106 55 -157t157 -51q33 0 63.5 5t60.5 14l27 167h-109
q-25 0 -39.5 11t-14.5 30q0 26 16 40t44 14h163q29 0 43 -16t9 -45l-38 -240q-7 -46 -48 -60t-93 -22t-102 -8zM377 -262q-16 -15 -32.5 -11.5t-21.5 18t12 31.5q17 18 24 40q-58 3 -58 51q0 32 20.5 49t53.5 17q61 0 61 -56q0 -36 -16.5 -75t-42.5 -64z" />
    <glyph glyph-name="Gdotaccent" unicode="&#x120;" horiz-adv-x="736" 
d="M398 -10q-98 0 -172 36t-115 106t-41 171q0 120 46 213t133.5 146t210.5 53q124 0 206 -54q24 -16 28 -39.5t-7 -43.5t-31.5 -27.5t-44.5 8.5q-67 44 -158 44q-79 0 -134.5 -38.5t-85 -105t-29.5 -151.5q0 -106 55 -157t157 -51q33 0 63.5 5t60.5 14l27 167h-109
q-25 0 -39.5 11t-14.5 30q0 26 16 40t44 14h163q29 0 43 -16t9 -45l-38 -240q-7 -46 -48 -60t-93 -22t-102 -8zM461 789q-57 0 -57 50q0 35 20.5 55t56.5 20q57 0 57 -49q0 -34 -20.5 -55t-56.5 -21z" />
    <glyph glyph-name="uni1E20" unicode="&#x1e20;" horiz-adv-x="736" 
d="M398 -10q-98 0 -172 36t-115 106t-41 171q0 120 46 213t133.5 146t210.5 53q124 0 206 -54q24 -16 28 -39.5t-7 -43.5t-31.5 -27.5t-44.5 8.5q-67 44 -158 44q-79 0 -134.5 -38.5t-85 -105t-29.5 -151.5q0 -106 55 -157t157 -51q33 0 63.5 5t60.5 14l27 167h-109
q-25 0 -39.5 11t-14.5 30q0 26 16 40t44 14h163q29 0 43 -16t9 -45l-38 -240q-7 -46 -48 -60t-93 -22t-102 -8zM329 806q-40 0 -40 31q0 20 12 31.5t32 11.5h277q40 0 40 -31q0 -19 -12 -31t-32 -12h-277z" />
    <glyph glyph-name="H" unicode="H" horiz-adv-x="773" 
d="M103 -8q-32 0 -46 20t-8 56l92 581q10 64 73 64q32 0 45.5 -20t7.5 -56l-36 -226h363l38 238q10 64 72 64q66 0 54 -76l-92 -580q-11 -65 -72 -65q-33 0 -46.5 20t-7.5 56l37 236h-363l-39 -247q-11 -65 -72 -65z" />
    <glyph glyph-name="Hbar" unicode="&#x126;" horiz-adv-x="817" 
d="M126 -8q-31 0 -46 20t-9 56l70 443h-36q-51 0 -51 38q0 26 15.5 41t41.5 15h45l7 44q10 64 73 64q30 0 45 -19t9 -54l-6 -35h362l7 45q10 63 74 63q30 0 44 -19t9 -54l-6 -35h35q51 0 51 -38q0 -26 -15.5 -41t-41.5 -15h-44l-72 -454q-11 -65 -71 -65q-31 0 -46 20t-9 56
l36 226h-362l-38 -237q-11 -65 -71 -65zM252 401h362l18 110h-363z" />
    <glyph glyph-name="uni1E2A" unicode="&#x1e2a;" horiz-adv-x="773" 
d="M103 -8q-32 0 -46 20t-8 56l92 581q10 64 73 64q32 0 45.5 -20t7.5 -56l-36 -226h363l38 238q10 64 72 64q66 0 54 -76l-92 -580q-11 -65 -72 -65q-33 0 -46.5 20t-7.5 56l37 236h-363l-39 -247q-11 -65 -72 -65zM333 -215q-64 0 -105.5 32.5t-47.5 85.5q-4 41 31 46
q35 4 42 -32q5 -28 28 -43t56 -15q35 0 60 16.5t36 45.5t43 28q17 -1 26 -13.5t1 -34.5q-19 -56 -63 -86t-107 -30z" />
    <glyph glyph-name="Hcircumflex" unicode="&#x124;" horiz-adv-x="773" 
d="M103 -8q-32 0 -46 20t-8 56l92 581q10 64 73 64q32 0 45.5 -20t7.5 -56l-36 -226h363l38 238q10 64 72 64q66 0 54 -76l-92 -580q-11 -65 -72 -65q-33 0 -46.5 20t-7.5 56l37 236h-363l-39 -247q-11 -65 -72 -65zM376 770q-16 -17 -35.5 -14t-28 18.5t6.5 33.5l83 103
q34 41 80 41q24 0 41 -12t30 -35l59 -95q11 -17 6.5 -30.5t-17.5 -20t-29 -3.5t-28 19l-71 94z" />
    <glyph glyph-name="uni1E24" unicode="&#x1e24;" horiz-adv-x="773" 
d="M103 -8q-32 0 -46 20t-8 56l92 581q10 64 73 64q32 0 45.5 -20t7.5 -56l-36 -226h363l38 238q10 64 72 64q66 0 54 -76l-92 -580q-11 -65 -72 -65q-33 0 -46.5 20t-7.5 56l37 236h-363l-39 -247q-11 -65 -72 -65zM320 -209q-56 0 -56 50q0 35 20.5 55t55.5 20
q57 0 57 -49q0 -34 -20.5 -55t-56.5 -21z" />
    <glyph glyph-name="I" unicode="I" horiz-adv-x="282" 
d="M104 -8q-33 0 -47 20t-8 56l92 581q10 64 73 64q65 0 53 -76l-92 -580q-11 -65 -71 -65z" />
    <glyph glyph-name="IJ" unicode="&#x132;" horiz-adv-x="636" 
d="M104 -8q-33 0 -47 20t-8 56l92 581q10 64 73 64q65 0 53 -76l-92 -580q-11 -65 -71 -65zM296 -7q-28 -1 -44 12.5t-15 38.5q2 51 50 54l31 2q47 3 73 29t34 78l71 447q9 59 69 59q32 0 47 -18.5t10 -51.5l-71 -447q-15 -94 -65.5 -143.5t-159.5 -57.5z" />
    <glyph glyph-name="Iacute" unicode="&#xcd;" horiz-adv-x="282" 
d="M104 -8q-33 0 -47 20t-8 56l92 581q10 64 73 64q65 0 53 -76l-92 -580q-11 -65 -71 -65zM275 771q-18 -18 -37 -13.5t-27 21.5t6 36l85 113q17 22 37.5 24t36 -10t18.5 -30.5t-15 -36.5z" />
    <glyph glyph-name="Ibreve" unicode="&#x12c;" horiz-adv-x="282" 
d="M104 -8q-33 0 -47 20t-8 56l92 581q10 64 73 64q65 0 53 -76l-92 -580q-11 -65 -71 -65zM229 760q-73 0 -116 38.5t-53 98.5q-6 39 30 44q17 2 28.5 -5.5t13.5 -24.5q5 -36 32 -56t68 -20q38 0 69 19t44 58q5 15 16 23t28 6t25 -14.5t1 -32.5q-20 -61 -69.5 -97.5
t-116.5 -36.5z" />
    <glyph glyph-name="Icircumflex" unicode="&#xce;" horiz-adv-x="282" 
d="M104 -8q-33 0 -47 20t-8 56l92 581q10 64 73 64q65 0 53 -76l-92 -580q-11 -65 -71 -65zM132 770q-16 -17 -35.5 -14t-28 18.5t6.5 33.5l83 103q34 41 80 41q24 0 41 -12t30 -35l59 -95q11 -17 6.5 -30.5t-17.5 -20t-29 -3.5t-28 19l-71 94z" />
    <glyph glyph-name="uni0208" unicode="&#x208;" horiz-adv-x="282" 
d="M104 -8q-33 0 -47 20t-8 56l92 581q10 64 73 64q65 0 53 -76l-92 -580q-11 -65 -71 -65zM257 773l-71 111q-13 21 -6 38.5t24.5 25.5t36 3t28.5 -29l48 -118q8 -19 -2.5 -33t-28 -15.5t-29.5 17.5zM110 774l-78 112q-14 20 -7.5 37t24 25t36.5 2.5t29 -28.5l55 -120
q9 -19 -1 -32.5t-27 -14t-31 18.5z" />
    <glyph glyph-name="Idieresis" unicode="&#xcf;" horiz-adv-x="282" 
d="M104 -8q-33 0 -47 20t-8 56l92 581q10 64 73 64q65 0 53 -76l-92 -580q-11 -65 -71 -65zM322 786q-54 0 -54 48q0 34 19 54.5t53 20.5q54 0 54 -48q0 -34 -18.5 -54.5t-53.5 -20.5zM133 786q-53 0 -53 48q0 34 19 54.5t53 20.5q53 0 53 -48q0 -34 -18.5 -54.5
t-53.5 -20.5z" />
    <glyph glyph-name="uni1E2E" unicode="&#x1e2e;" horiz-adv-x="282" 
d="M104 -8q-33 0 -47 20t-8 56l92 581q10 64 73 64q65 0 53 -76l-92 -580q-11 -65 -71 -65zM284 895q-16 -17 -34 -15t-25.5 17t5.5 36l56 88q14 21 32.5 23.5t34 -8.5t18.5 -28.5t-15 -36.5zM130 766q-55 0 -55 42q0 27 19.5 40.5t50.5 13.5q55 0 55 -41q0 -55 -70 -55z
M319 766q-55 0 -55 42q0 27 19.5 40.5t50.5 13.5q54 0 54 -41q0 -55 -69 -55z" />
    <glyph glyph-name="Idotaccent" unicode="&#x130;" horiz-adv-x="282" 
d="M104 -8q-33 0 -47 20t-8 56l92 581q10 64 73 64q65 0 53 -76l-92 -580q-11 -65 -71 -65zM228 789q-57 0 -57 50q0 35 20.5 55t56.5 20q57 0 57 -49q0 -34 -20.5 -55t-56.5 -21z" />
    <glyph glyph-name="uni1ECA" unicode="&#x1eca;" horiz-adv-x="282" 
d="M104 -8q-33 0 -47 20t-8 56l92 581q10 64 73 64q65 0 53 -76l-92 -580q-11 -65 -71 -65zM68 -209q-56 0 -56 50q0 35 20.5 55t55.5 20q57 0 57 -49q0 -34 -20.5 -55t-56.5 -21z" />
    <glyph glyph-name="Igrave" unicode="&#xcc;" horiz-adv-x="282" 
d="M104 -8q-33 0 -47 20t-8 56l92 581q10 64 73 64q65 0 53 -76l-92 -580q-11 -65 -71 -65zM173 773l-83 100q-17 21 -12.5 40t22 30.5t38 8t34.5 -27.5l65 -106q9 -16 5 -30t-16 -22.5t-26.5 -7.5t-26.5 15z" />
    <glyph glyph-name="uni1EC8" unicode="&#x1ec8;" horiz-adv-x="282" 
d="M104 -8q-33 0 -47 20t-8 56l92 581q10 64 73 64q65 0 53 -76l-92 -580q-11 -65 -71 -65zM222 757q-37 0 -34 26q3 24 19 37t30.5 23t14.5 24q0 18 -38 18q-8 0 -18 -1t-20 -4q-16 -5 -24.5 -1t-13.5 17q-4 14 2 24t19 14q21 7 43.5 9.5t45.5 2.5q47 0 73 -16t26 -44
q0 -24 -12 -37.5t-28 -23t-28.5 -20t-14.5 -28.5q-1 -10 -12.5 -15t-29.5 -5z" />
    <glyph glyph-name="uni020A" unicode="&#x20a;" horiz-adv-x="282" 
d="M104 -8q-33 0 -47 20t-8 56l92 581q10 64 73 64q65 0 53 -76l-92 -580q-11 -65 -71 -65zM73 758q-16 2 -24.5 15t-1.5 32q21 62 70 98t116 36q73 0 116.5 -38.5t52.5 -98.5q6 -39 -30 -44q-16 -2 -28 6t-14 24q-5 36 -32 56.5t-68 20.5q-38 0 -68.5 -19.5t-44.5 -58.5
q-5 -15 -16 -23t-28 -6z" />
    <glyph glyph-name="Imacron" unicode="&#x12a;" horiz-adv-x="282" 
d="M104 -8q-33 0 -47 20t-8 56l92 581q10 64 73 64q65 0 53 -76l-92 -580q-11 -65 -71 -65zM96 806q-40 0 -40 31q0 20 12 31.5t32 11.5h277q40 0 40 -31q0 -19 -12 -31t-32 -12h-277z" />
    <glyph glyph-name="Iogonek" unicode="&#x12e;" horiz-adv-x="282" 
d="M99 -195q-54 0 -80.5 26.5t-26.5 65.5q0 70 63 118q-12 20 -6 53l92 581q10 64 73 64q65 0 53 -76l-92 -580q-8 -47 -40 -60q-30 -12 -47 -32t-17 -46q0 -21 14 -34t37 -13q8 0 16 1t18 4q21 6 29.5 -7t4.5 -30.5t-21 -23.5q-31 -11 -70 -11z" />
    <glyph glyph-name="Itilde" unicode="&#x128;" horiz-adv-x="282" 
d="M104 -8q-33 0 -47 20t-8 56l92 581q10 64 73 64q65 0 53 -76l-92 -580q-11 -65 -71 -65zM31 770q-15 1 -22 11.5t-2 29.5q17 59 52 86t82 27q28 0 52 -10t45.5 -23t41.5 -23t40 -10q22 0 40 11.5t26 34.5q5 14 13.5 20.5t24.5 5.5q15 -1 22 -11.5t2 -29.5
q-16 -58 -52 -85.5t-83 -27.5q-28 0 -52 10t-45 23t-41 23t-40 10q-22 0 -39.5 -11.5t-26.5 -34.5q-5 -14 -13.5 -20.5t-24.5 -5.5z" />
    <glyph glyph-name="J" unicode="J" horiz-adv-x="354" 
d="M14 -7q-28 -1 -44 12.5t-15 38.5q2 51 50 54l31 2q47 3 73 29t34 78l71 447q9 59 69 59q32 0 47 -18.5t10 -51.5l-71 -447q-15 -94 -65.5 -143.5t-159.5 -57.5z" />
    <glyph glyph-name="Jcircumflex" unicode="&#x134;" horiz-adv-x="354" 
d="M14 -7q-28 -1 -44 12.5t-15 38.5q2 51 50 54l31 2q47 3 73 29t34 78l71 447q9 59 69 59q32 0 47 -18.5t10 -51.5l-71 -447q-15 -94 -65.5 -143.5t-159.5 -57.5zM204 770q-16 -17 -35.5 -14t-28 18.5t6.5 33.5l83 103q34 41 80 41q24 0 41 -12t30 -35l59 -95
q11 -17 6.5 -30.5t-17.5 -20t-29 -3.5t-28 19l-71 94z" />
    <glyph glyph-name="K" unicode="K" horiz-adv-x="664" 
d="M103 -8q-31 0 -46 19.5t-9 55.5l93 583q11 63 72 63q31 0 45 -19.5t9 -54.5l-39 -246h2l330 290q17 15 30.5 22.5t32.5 7.5q25 0 39.5 -15t14 -36t-20.5 -38l-304 -267l236 -279q16 -18 14 -38t-17 -34t-40 -14q-23 0 -36.5 10t-33.5 32l-255 295h-2l-43 -275
q-10 -62 -72 -62z" />
    <glyph glyph-name="uni0136" unicode="&#x136;" horiz-adv-x="664" 
d="M103 -8q-31 0 -46 19.5t-9 55.5l93 583q11 63 72 63q31 0 45 -19.5t9 -54.5l-39 -246h2l330 290q17 15 30.5 22.5t32.5 7.5q25 0 39.5 -15t14 -36t-20.5 -38l-304 -267l236 -279q16 -18 14 -38t-17 -34t-40 -14q-23 0 -36.5 10t-33.5 32l-255 295h-2l-43 -275
q-10 -62 -72 -62zM287 -262q-16 -15 -32.5 -11.5t-21.5 18t12 31.5q17 18 24 40q-58 3 -58 51q0 32 20.5 49t53.5 17q61 0 61 -56q0 -36 -16.5 -75t-42.5 -64z" />
    <glyph glyph-name="L" unicode="L" horiz-adv-x="562" 
d="M109 0q-34 0 -49.5 18.5t-10.5 52.5l93 583q9 59 69 59q32 0 47 -18.5t10 -51.5l-84 -534h279q58 0 58 -44q0 -31 -17.5 -48t-47.5 -17h-347z" />
    <glyph glyph-name="uni01C7" unicode="&#x1c7;" horiz-adv-x="956" 
d="M109 0q-34 0 -49.5 18.5t-10.5 52.5l93 583q9 59 69 59q32 0 47 -18.5t10 -51.5l-84 -534h279q58 0 58 -44q0 -31 -17.5 -48t-47.5 -17h-347zM616 -7q-28 -1 -44 12.5t-15 38.5q2 51 50 54l31 2q47 3 73 29t34 78l71 447q9 59 69 59q32 0 47 -18.5t10 -51.5l-71 -447
q-15 -94 -65.5 -143.5t-159.5 -57.5z" />
    <glyph glyph-name="Lacute" unicode="&#x139;" horiz-adv-x="562" 
d="M109 0q-34 0 -49.5 18.5t-10.5 52.5l93 583q9 59 69 59q32 0 47 -18.5t10 -51.5l-84 -534h279q58 0 58 -44q0 -31 -17.5 -48t-47.5 -17h-347zM274 771q-18 -18 -37 -13.5t-27 21.5t6 36l85 113q17 22 37.5 24t36 -10t18.5 -30.5t-15 -36.5z" />
    <glyph glyph-name="Lcaron" unicode="&#x13d;" horiz-adv-x="562" 
d="M109 0q-34 0 -49.5 18.5t-10.5 52.5l93 583q9 59 69 59q32 0 47 -18.5t10 -51.5l-84 -534h279q58 0 58 -44q0 -31 -17.5 -48t-47.5 -17h-347zM383 462q-17 0 -24.5 12t-4.5 31l26 166q4 23 16.5 32.5t34.5 9.5q24 0 35 -14t4 -40l-41 -162q-9 -35 -46 -35z" />
    <glyph glyph-name="uni013B" unicode="&#x13b;" horiz-adv-x="562" 
d="M109 0q-34 0 -49.5 18.5t-10.5 52.5l93 583q9 59 69 59q32 0 47 -18.5t10 -51.5l-84 -534h279q58 0 58 -44q0 -31 -17.5 -48t-47.5 -17h-347zM260 -262q-16 -15 -32.5 -11.5t-21.5 18t12 31.5q17 18 24 40q-58 3 -58 51q0 32 20.5 49t53.5 17q61 0 61 -56
q0 -36 -16.5 -75t-42.5 -64z" />
    <glyph glyph-name="Ldot" unicode="&#x13f;" horiz-adv-x="562" 
d="M109 0q-34 0 -49.5 18.5t-10.5 52.5l93 583q9 59 69 59q32 0 47 -18.5t10 -51.5l-84 -534h279q58 0 58 -44q0 -31 -17.5 -48t-47.5 -17h-347zM450 320q-34 0 -54.5 21t-20.5 53q0 33 20.5 53.5t54.5 20.5q35 0 54.5 -20.5t19.5 -53.5q0 -32 -19.5 -53t-54.5 -21z" />
    <glyph glyph-name="uni1E36" unicode="&#x1e36;" horiz-adv-x="562" 
d="M109 0q-34 0 -49.5 18.5t-10.5 52.5l93 583q9 59 69 59q32 0 47 -18.5t10 -51.5l-84 -534h279q58 0 58 -44q0 -31 -17.5 -48t-47.5 -17h-347zM239 -209q-56 0 -56 50q0 35 20.5 55t55.5 20q57 0 57 -49q0 -34 -20.5 -55t-56.5 -21z" />
    <glyph glyph-name="uni01C8" unicode="&#x1c8;" horiz-adv-x="821" 
d="M109 0q-34 0 -49.5 18.5t-10.5 52.5l93 583q9 59 69 59q32 0 47 -18.5t10 -51.5l-84 -534h279q58 0 58 -44q0 -31 -17.5 -48t-47.5 -17h-347zM747 589q-34 0 -50.5 16.5t-13.5 46.5q8 69 85 69q34 0 51 -16.5t13 -46.5q-9 -69 -85 -69zM498 -191q-25 -1 -37.5 12.5
t-13 32t11 33t33.5 15.5q41 2 66.5 23.5t32.5 67.5l70 442q11 62 71 62q29 0 43 -19t9 -54l-66 -417q-10 -67 -35 -109t-69.5 -63.5t-115.5 -25.5z" />
    <glyph glyph-name="uni1E3A" unicode="&#x1e3a;" horiz-adv-x="562" 
d="M109 0q-34 0 -49.5 18.5t-10.5 52.5l93 583q9 59 69 59q32 0 47 -18.5t10 -51.5l-84 -534h279q58 0 58 -44q0 -31 -17.5 -48t-47.5 -17h-347zM128 -165q-40 0 -40 31q0 20 12 31.5t32 11.5h247q40 0 40 -31q0 -19 -12 -31t-32 -12h-247z" />
    <glyph glyph-name="Lslash" unicode="&#x141;" horiz-adv-x="562" 
d="M109 0q-34 0 -49.5 18.5t-10.5 52.5l93 583q9 59 69 59q32 0 47 -18.5t10 -51.5l-84 -534h279q58 0 58 -44q0 -31 -17.5 -48t-47.5 -17h-347zM49 262q-24 -11 -42.5 -3.5t-26.5 25t-2 36.5t30 30l346 161q24 11 42 3.5t26 -25t2 -36.5t-30 -30z" />
    <glyph glyph-name="M" unicode="M" horiz-adv-x="869" 
d="M102 -5q-31 0 -43.5 17t-8.5 47l95 599q9 55 63 55q24 0 37.5 -10.5t23.5 -36.5l160 -425l303 435q26 37 70 37q29 0 42.5 -17t8.5 -47l-95 -599q-9 -55 -63 -55q-28 0 -42 17t-10 47l66 417l-243 -348q-11 -16 -22.5 -22.5t-28.5 -6.5q-36 0 -50 37l-133 339l-68 -425
q-9 -55 -62 -55z" />
    <glyph glyph-name="uni1E42" unicode="&#x1e42;" horiz-adv-x="869" 
d="M102 -5q-31 0 -43.5 17t-8.5 47l95 599q9 55 63 55q24 0 37.5 -10.5t23.5 -36.5l160 -425l303 435q26 37 70 37q29 0 42.5 -17t8.5 -47l-95 -599q-9 -55 -63 -55q-28 0 -42 17t-10 47l66 417l-243 -348q-11 -16 -22.5 -22.5t-28.5 -6.5q-36 0 -50 37l-133 339l-68 -425
q-9 -55 -62 -55zM369 -209q-56 0 -56 50q0 35 20.5 55t55.5 20q57 0 57 -49q0 -34 -20.5 -55t-56.5 -21z" />
    <glyph glyph-name="N" unicode="N" horiz-adv-x="747" 
d="M100 -8q-28 0 -42.5 18.5t-9.5 52.5l95 596q5 28 20.5 41t38.5 13q25 0 37.5 -9.5t25.5 -30.5l279 -474l72 455q9 59 69 59q28 0 40.5 -18.5t7.5 -51.5l-94 -595q-9 -56 -55 -56q-25 0 -40 10t-28 32l-279 472l-72 -455q-4 -30 -19.5 -44.5t-45.5 -14.5z" />
    <glyph glyph-name="uni01CA" unicode="&#x1ca;" horiz-adv-x="1101" 
d="M100 -8q-28 0 -42.5 18.5t-9.5 52.5l95 596q5 28 20.5 41t38.5 13q25 0 37.5 -9.5t25.5 -30.5l279 -474l72 455q9 59 69 59q28 0 40.5 -18.5t7.5 -51.5l-94 -595q-9 -56 -55 -56q-25 0 -40 10t-28 32l-279 472l-72 -455q-4 -30 -19.5 -44.5t-45.5 -14.5zM761 -7
q-28 -1 -44 12.5t-15 38.5q2 51 50 54l31 2q47 3 73 29t34 78l71 447q9 59 69 59q32 0 47 -18.5t10 -51.5l-71 -447q-15 -94 -65.5 -143.5t-159.5 -57.5z" />
    <glyph glyph-name="Nacute" unicode="&#x143;" horiz-adv-x="747" 
d="M100 -8q-28 0 -42.5 18.5t-9.5 52.5l95 596q5 28 20.5 41t38.5 13q25 0 37.5 -9.5t25.5 -30.5l279 -474l72 455q9 59 69 59q28 0 40.5 -18.5t7.5 -51.5l-94 -595q-9 -56 -55 -56q-25 0 -40 10t-28 32l-279 472l-72 -455q-4 -30 -19.5 -44.5t-45.5 -14.5zM506 771
q-18 -18 -37 -13.5t-27 21.5t6 36l85 113q17 22 37.5 24t36 -10t18.5 -30.5t-15 -36.5z" />
    <glyph glyph-name="Ncaron" unicode="&#x147;" horiz-adv-x="747" 
d="M100 -8q-28 0 -42.5 18.5t-9.5 52.5l95 596q5 28 20.5 41t38.5 13q25 0 37.5 -9.5t25.5 -30.5l279 -474l72 455q9 59 69 59q28 0 40.5 -18.5t7.5 -51.5l-94 -595q-9 -56 -55 -56q-25 0 -40 10t-28 32l-279 472l-72 -455q-4 -30 -19.5 -44.5t-45.5 -14.5zM452 753
q-24 0 -40.5 12t-30.5 34l-60 96q-10 17 -6 30t16.5 19.5t28 3t27.5 -19.5l72 -93l96 100q12 13 27 14t27 -6.5t15 -19.5t-8 -26l-83 -102q-33 -42 -81 -42z" />
    <glyph glyph-name="uni0145" unicode="&#x145;" horiz-adv-x="747" 
d="M100 -8q-28 0 -42.5 18.5t-9.5 52.5l95 596q5 28 20.5 41t38.5 13q25 0 37.5 -9.5t25.5 -30.5l279 -474l72 455q9 59 69 59q28 0 40.5 -18.5t7.5 -51.5l-94 -595q-9 -56 -55 -56q-25 0 -40 10t-28 32l-279 472l-72 -455q-4 -30 -19.5 -44.5t-45.5 -14.5zM333 -262
q-16 -15 -32.5 -11.5t-21.5 18t12 31.5q17 18 24 40q-58 3 -58 51q0 32 20.5 49t53.5 17q61 0 61 -56q0 -36 -16.5 -75t-42.5 -64z" />
    <glyph glyph-name="uni1E44" unicode="&#x1e44;" horiz-adv-x="747" 
d="M100 -8q-28 0 -42.5 18.5t-9.5 52.5l95 596q5 28 20.5 41t38.5 13q25 0 37.5 -9.5t25.5 -30.5l279 -474l72 455q9 59 69 59q28 0 40.5 -18.5t7.5 -51.5l-94 -595q-9 -56 -55 -56q-25 0 -40 10t-28 32l-279 472l-72 -455q-4 -30 -19.5 -44.5t-45.5 -14.5zM459 789
q-57 0 -57 50q0 35 20.5 55t56.5 20q57 0 57 -49q0 -34 -20.5 -55t-56.5 -21z" />
    <glyph glyph-name="uni1E46" unicode="&#x1e46;" horiz-adv-x="747" 
d="M100 -8q-28 0 -42.5 18.5t-9.5 52.5l95 596q5 28 20.5 41t38.5 13q25 0 37.5 -9.5t25.5 -30.5l279 -474l72 455q9 59 69 59q28 0 40.5 -18.5t7.5 -51.5l-94 -595q-9 -56 -55 -56q-25 0 -40 10t-28 32l-279 472l-72 -455q-4 -30 -19.5 -44.5t-45.5 -14.5zM312 -209
q-56 0 -56 50q0 35 20.5 55t55.5 20q57 0 57 -49q0 -34 -20.5 -55t-56.5 -21z" />
    <glyph glyph-name="Eng" unicode="&#x14a;" horiz-adv-x="747" 
d="M413 -191q-25 0 -37 13.5t-12.5 31.5t11 32.5t33.5 15.5q41 2 68.5 23.5t34.5 67.5l6 39l-280 474l-72 -455q-4 -30 -19.5 -44.5t-45.5 -14.5q-28 0 -42.5 18.5t-9.5 52.5l95 595q5 28 20.5 41.5t38.5 13.5q25 0 37.5 -9.5t25.5 -30.5l279 -475l72 456q9 59 68 59
q28 0 41 -18.5t8 -51.5l-101 -636q-16 -100 -68 -149t-151 -49z" />
    <glyph glyph-name="uni01CB" unicode="&#x1cb;" horiz-adv-x="1006" 
d="M100 -8q-28 0 -42.5 18.5t-9.5 52.5l95 596q5 28 20.5 41t38.5 13q25 0 37.5 -9.5t25.5 -30.5l279 -474l72 455q9 59 69 59q28 0 40.5 -18.5t7.5 -51.5l-94 -595q-9 -56 -55 -56q-25 0 -40 10t-28 32l-279 472l-72 -455q-4 -30 -19.5 -44.5t-45.5 -14.5zM932 589
q-34 0 -50.5 16.5t-13.5 46.5q8 69 85 69q34 0 51 -16.5t13 -46.5q-9 -69 -85 -69zM683 -191q-25 -1 -37.5 12.5t-13 32t11 33t33.5 15.5q41 2 66.5 23.5t32.5 67.5l70 442q11 62 71 62q29 0 43 -19t9 -54l-66 -417q-10 -67 -35 -109t-69.5 -63.5t-115.5 -25.5z" />
    <glyph glyph-name="uni1E48" unicode="&#x1e48;" horiz-adv-x="747" 
d="M100 -8q-28 0 -42.5 18.5t-9.5 52.5l95 596q5 28 20.5 41t38.5 13q25 0 37.5 -9.5t25.5 -30.5l279 -474l72 455q9 59 69 59q28 0 40.5 -18.5t7.5 -51.5l-94 -595q-9 -56 -55 -56q-25 0 -40 10t-28 32l-279 472l-72 -455q-4 -30 -19.5 -44.5t-45.5 -14.5zM201 -165
q-40 0 -40 31q0 20 12 31.5t32 11.5h247q40 0 40 -31q0 -19 -12 -31t-32 -12h-247z" />
    <glyph glyph-name="Ntilde" unicode="&#xd1;" horiz-adv-x="747" 
d="M100 -8q-28 0 -42.5 18.5t-9.5 52.5l95 596q5 28 20.5 41t38.5 13q25 0 37.5 -9.5t25.5 -30.5l279 -474l72 455q9 59 69 59q28 0 40.5 -18.5t7.5 -51.5l-94 -595q-9 -56 -55 -56q-25 0 -40 10t-28 32l-279 472l-72 -455q-4 -30 -19.5 -44.5t-45.5 -14.5zM262 770
q-15 1 -22 11.5t-2 29.5q17 59 52 86t82 27q28 0 52 -10t45.5 -23t41.5 -23t40 -10q22 0 40 11.5t26 34.5q5 14 13.5 20.5t24.5 5.5q15 -1 22 -11.5t2 -29.5q-16 -58 -52 -85.5t-83 -27.5q-28 0 -52 10t-45 23t-41 23t-40 10q-22 0 -39.5 -11.5t-26.5 -34.5
q-5 -14 -13.5 -20.5t-24.5 -5.5z" />
    <glyph glyph-name="O" unicode="O" horiz-adv-x="785" 
d="M381 -10q-94 0 -164 36t-108.5 105.5t-38.5 167.5q0 121 44.5 214.5t127.5 147.5t197 54q95 0 164.5 -36t108 -105t38.5 -167q0 -121 -44.5 -215t-127 -148t-197.5 -54zM383 100q75 0 127 39.5t79 108.5t27 157q0 101 -48 150.5t-132 49.5q-74 0 -126 -39t-79 -107.5
t-27 -157.5q0 -102 48 -151.5t131 -49.5z" />
    <glyph glyph-name="Oacute" unicode="&#xd3;" horiz-adv-x="785" 
d="M381 -10q-94 0 -164 36t-108.5 105.5t-38.5 167.5q0 121 44.5 214.5t127.5 147.5t197 54q95 0 164.5 -36t108 -105t38.5 -167q0 -121 -44.5 -215t-127 -148t-197.5 -54zM383 100q75 0 127 39.5t79 108.5t27 157q0 101 -48 150.5t-132 49.5q-74 0 -126 -39t-79 -107.5
t-27 -157.5q0 -102 48 -151.5t131 -49.5zM514 771q-18 -18 -37 -13.5t-27 21.5t6 36l85 113q17 22 37.5 24t36 -10t18.5 -30.5t-15 -36.5z" />
    <glyph glyph-name="Obreve" unicode="&#x14e;" horiz-adv-x="785" 
d="M381 -10q-94 0 -164 36t-108.5 105.5t-38.5 167.5q0 121 44.5 214.5t127.5 147.5t197 54q95 0 164.5 -36t108 -105t38.5 -167q0 -121 -44.5 -215t-127 -148t-197.5 -54zM383 100q75 0 127 39.5t79 108.5t27 157q0 101 -48 150.5t-132 49.5q-74 0 -126 -39t-79 -107.5
t-27 -157.5q0 -102 48 -151.5t131 -49.5zM468 760q-73 0 -116 38.5t-53 98.5q-6 39 30 44q17 2 28.5 -5.5t13.5 -24.5q5 -36 32 -56t68 -20q38 0 69 19t44 58q5 15 16 23t28 6t25 -14.5t1 -32.5q-20 -61 -69.5 -97.5t-116.5 -36.5z" />
    <glyph glyph-name="Ocircumflex" unicode="&#xd4;" horiz-adv-x="785" 
d="M381 -10q-94 0 -164 36t-108.5 105.5t-38.5 167.5q0 121 44.5 214.5t127.5 147.5t197 54q95 0 164.5 -36t108 -105t38.5 -167q0 -121 -44.5 -215t-127 -148t-197.5 -54zM383 100q75 0 127 39.5t79 108.5t27 157q0 101 -48 150.5t-132 49.5q-74 0 -126 -39t-79 -107.5
t-27 -157.5q0 -102 48 -151.5t131 -49.5zM371 770q-16 -17 -35.5 -14t-28 18.5t6.5 33.5l83 103q34 41 80 41q24 0 41 -12t30 -35l59 -95q11 -17 6.5 -30.5t-17.5 -20t-29 -3.5t-28 19l-71 94z" />
    <glyph glyph-name="uni1ED0" unicode="&#x1ed0;" horiz-adv-x="785" 
d="M381 -10q-94 0 -164 36t-108.5 105.5t-38.5 167.5q0 121 44.5 214.5t127.5 147.5t197 54q95 0 164.5 -36t108 -105t38.5 -167q0 -121 -44.5 -215t-127 -148t-197.5 -54zM383 100q75 0 127 39.5t79 108.5t27 157q0 101 -48 150.5t-132 49.5q-74 0 -126 -39t-79 -107.5
t-27 -157.5q0 -102 48 -151.5t131 -49.5zM645 866q-13 -15 -29 -13t-23.5 15t3.5 31l74 115q12 18 28.5 20t30 -7.5t17 -25t-11.5 -32.5zM376 767q-16 -16 -32.5 -11.5t-23.5 19t4 28.5l72 93q15 19 35 29.5t47 10.5q33 0 49 -14t26 -32l51 -87q11 -18 1 -32t-28.5 -16
t-32.5 15l-74 91z" />
    <glyph glyph-name="uni1ED8" unicode="&#x1ed8;" horiz-adv-x="785" 
d="M381 -10q-94 0 -164 36t-108.5 105.5t-38.5 167.5q0 121 44.5 214.5t127.5 147.5t197 54q95 0 164.5 -36t108 -105t38.5 -167q0 -121 -44.5 -215t-127 -148t-197.5 -54zM383 100q75 0 127 39.5t79 108.5t27 157q0 101 -48 150.5t-132 49.5q-74 0 -126 -39t-79 -107.5
t-27 -157.5q0 -102 48 -151.5t131 -49.5zM329 -209q-56 0 -56 50q0 35 20.5 55t55.5 20q57 0 57 -49q0 -34 -20.5 -55t-56.5 -21zM371 770q-16 -17 -35.5 -14t-28 18.5t6.5 33.5l83 103q34 41 80 41q24 0 41 -12t30 -35l59 -95q11 -17 6.5 -30.5t-17.5 -20t-29 -3.5t-28 19
l-71 94z" />
    <glyph glyph-name="uni1ED2" unicode="&#x1ed2;" horiz-adv-x="785" 
d="M381 -10q-94 0 -164 36t-108.5 105.5t-38.5 167.5q0 121 44.5 214.5t127.5 147.5t197 54q95 0 164.5 -36t108 -105t38.5 -167q0 -121 -44.5 -215t-127 -148t-197.5 -54zM383 100q75 0 127 39.5t79 108.5t27 157q0 101 -48 150.5t-132 49.5q-74 0 -126 -39t-79 -107.5
t-27 -157.5q0 -102 48 -151.5t131 -49.5zM621 868l-73 105q-12 17 -5.5 32.5t22 23.5t32.5 5t26 -23l54 -112q10 -19 0 -32t-27 -14t-29 15zM376 767q-16 -16 -32.5 -11.5t-23.5 19t4 28.5l72 93q15 19 35 29.5t47 10.5q33 0 49 -14t26 -32l51 -87q11 -18 1 -32t-28.5 -16
t-32.5 15l-74 91z" />
    <glyph glyph-name="uni1ED4" unicode="&#x1ed4;" horiz-adv-x="785" 
d="M381 -10q-94 0 -164 36t-108.5 105.5t-38.5 167.5q0 121 44.5 214.5t127.5 147.5t197 54q95 0 164.5 -36t108 -105t38.5 -167q0 -121 -44.5 -215t-127 -148t-197.5 -54zM383 100q75 0 127 39.5t79 108.5t27 157q0 101 -48 150.5t-132 49.5q-74 0 -126 -39t-79 -107.5
t-27 -157.5q0 -102 48 -151.5t131 -49.5zM639 870q-17 -8 -32.5 -4.5t-19.5 14t11 20.5q20 14 31.5 25.5t11.5 24.5q0 11 -9 16.5t-23 5.5q-9 0 -19 -1t-20 -3q-13 -2 -22 0.5t-12 14.5q-6 24 20 33q17 5 36 7.5t40 2.5q47 0 69.5 -15.5t22.5 -41.5q0 -21 -13 -40t-32.5 -34
t-39.5 -25zM376 767q-16 -16 -32.5 -11.5t-23.5 19t4 28.5l72 93q15 19 35 29.5t47 10.5q33 0 49 -14t26 -32l51 -87q11 -18 1 -32t-28.5 -16t-32.5 15l-74 91z" />
    <glyph glyph-name="uni1ED6" unicode="&#x1ed6;" horiz-adv-x="785" 
d="M381 -10q-94 0 -164 36t-108.5 105.5t-38.5 167.5q0 121 44.5 214.5t127.5 147.5t197 54q95 0 164.5 -36t108 -105t38.5 -167q0 -121 -44.5 -215t-127 -148t-197.5 -54zM383 100q75 0 127 39.5t79 108.5t27 157q0 101 -48 150.5t-132 49.5q-74 0 -126 -39t-79 -107.5
t-27 -157.5q0 -102 48 -151.5t131 -49.5zM338 919q-14 1 -21 11.5t-1 27.5q26 75 103 75q26 0 48 -11t41.5 -22t37.5 -11q16 0 29 6t19 21q8 22 35 21q14 -1 21 -11.5t1 -27.5q-26 -75 -103 -75q-26 0 -48.5 11t-41.5 22t-37 11q-16 0 -29 -6t-19 -21q-8 -22 -35 -21z
M370 763q-18 -13 -32.5 -9t-19 17.5t8.5 27.5l69 75q14 15 32 27.5t49 12.5q32 0 45.5 -14.5t26.5 -31.5l54 -72q12 -15 4 -27.5t-25 -14.5t-34 12l-80 71z" />
    <glyph glyph-name="uni020C" unicode="&#x20c;" horiz-adv-x="785" 
d="M381 -10q-94 0 -164 36t-108.5 105.5t-38.5 167.5q0 121 44.5 214.5t127.5 147.5t197 54q95 0 164.5 -36t108 -105t38.5 -167q0 -121 -44.5 -215t-127 -148t-197.5 -54zM383 100q75 0 127 39.5t79 108.5t27 157q0 101 -48 150.5t-132 49.5q-74 0 -126 -39t-79 -107.5
t-27 -157.5q0 -102 48 -151.5t131 -49.5zM496 773l-71 111q-13 21 -6 38.5t24.5 25.5t36 3t28.5 -29l48 -118q8 -19 -2.5 -33t-28 -15.5t-29.5 17.5zM349 774l-78 112q-14 20 -7.5 37t24 25t36.5 2.5t29 -28.5l55 -120q9 -19 -1 -32.5t-27 -14t-31 18.5z" />
    <glyph glyph-name="Odieresis" unicode="&#xd6;" horiz-adv-x="785" 
d="M381 -10q-94 0 -164 36t-108.5 105.5t-38.5 167.5q0 121 44.5 214.5t127.5 147.5t197 54q95 0 164.5 -36t108 -105t38.5 -167q0 -121 -44.5 -215t-127 -148t-197.5 -54zM383 100q75 0 127 39.5t79 108.5t27 157q0 101 -48 150.5t-132 49.5q-74 0 -126 -39t-79 -107.5
t-27 -157.5q0 -102 48 -151.5t131 -49.5zM561 786q-54 0 -54 48q0 34 19 54.5t53 20.5q54 0 54 -48q0 -34 -18.5 -54.5t-53.5 -20.5zM372 786q-53 0 -53 48q0 34 19 54.5t53 20.5q53 0 53 -48q0 -34 -18.5 -54.5t-53.5 -20.5z" />
    <glyph glyph-name="uni022A" unicode="&#x22a;" horiz-adv-x="785" 
d="M381 -10q-94 0 -164 36t-108.5 105.5t-38.5 167.5q0 121 44.5 214.5t127.5 147.5t197 54q95 0 164.5 -36t108 -105t38.5 -167q0 -121 -44.5 -215t-127 -148t-197.5 -54zM383 100q75 0 127 39.5t79 108.5t27 157q0 101 -48 150.5t-132 49.5q-74 0 -126 -39t-79 -107.5
t-27 -157.5q0 -102 48 -151.5t131 -49.5zM372 924q-40 0 -40 31q0 20 11.5 31.5t33.5 11.5h239q41 0 41 -31q0 -19 -11.5 -31t-33.5 -12h-240zM372 783q-55 0 -55 42q0 28 19.5 41.5t50.5 13.5q55 0 55 -42q0 -25 -18 -40t-52 -15zM561 783q-55 0 -55 42q0 28 19.5 41.5
t50.5 13.5q54 0 54 -42q0 -25 -18 -40t-51 -15z" />
    <glyph glyph-name="uni0230" unicode="&#x230;" horiz-adv-x="785" 
d="M381 -10q-94 0 -164 36t-108.5 105.5t-38.5 167.5q0 121 44.5 214.5t127.5 147.5t197 54q95 0 164.5 -36t108 -105t38.5 -167q0 -121 -44.5 -215t-127 -148t-197.5 -54zM383 100q75 0 127 39.5t79 108.5t27 157q0 101 -48 150.5t-132 49.5q-74 0 -126 -39t-79 -107.5
t-27 -157.5q0 -102 48 -151.5t131 -49.5zM371 924q-40 0 -40 31q0 20 11.5 31.5t33.5 11.5h239q41 0 41 -31q0 -19 -11.5 -31t-33.5 -12h-240zM466 783q-55 0 -55 42q0 28 19.5 41.5t50.5 13.5q54 0 54 -42q0 -25 -18 -40t-51 -15z" />
    <glyph glyph-name="uni1ECC" unicode="&#x1ecc;" horiz-adv-x="785" 
d="M381 -10q-94 0 -164 36t-108.5 105.5t-38.5 167.5q0 121 44.5 214.5t127.5 147.5t197 54q95 0 164.5 -36t108 -105t38.5 -167q0 -121 -44.5 -215t-127 -148t-197.5 -54zM383 100q75 0 127 39.5t79 108.5t27 157q0 101 -48 150.5t-132 49.5q-74 0 -126 -39t-79 -107.5
t-27 -157.5q0 -102 48 -151.5t131 -49.5zM329 -209q-56 0 -56 50q0 35 20.5 55t55.5 20q57 0 57 -49q0 -34 -20.5 -55t-56.5 -21z" />
    <glyph glyph-name="Ograve" unicode="&#xd2;" horiz-adv-x="785" 
d="M381 -10q-94 0 -164 36t-108.5 105.5t-38.5 167.5q0 121 44.5 214.5t127.5 147.5t197 54q95 0 164.5 -36t108 -105t38.5 -167q0 -121 -44.5 -215t-127 -148t-197.5 -54zM383 100q75 0 127 39.5t79 108.5t27 157q0 101 -48 150.5t-132 49.5q-74 0 -126 -39t-79 -107.5
t-27 -157.5q0 -102 48 -151.5t131 -49.5zM412 773l-83 100q-17 21 -12.5 40t22 30.5t38 8t34.5 -27.5l65 -106q9 -16 5 -30t-16 -22.5t-26.5 -7.5t-26.5 15z" />
    <glyph glyph-name="uni1ECE" unicode="&#x1ece;" horiz-adv-x="785" 
d="M381 -10q-94 0 -164 36t-108.5 105.5t-38.5 167.5q0 121 44.5 214.5t127.5 147.5t197 54q95 0 164.5 -36t108 -105t38.5 -167q0 -121 -44.5 -215t-127 -148t-197.5 -54zM383 100q75 0 127 39.5t79 108.5t27 157q0 101 -48 150.5t-132 49.5q-74 0 -126 -39t-79 -107.5
t-27 -157.5q0 -102 48 -151.5t131 -49.5zM461 757q-37 0 -34 26q3 24 19 37t30.5 23t14.5 24q0 18 -38 18q-8 0 -18 -1t-20 -4q-16 -5 -24.5 -1t-13.5 17q-4 14 2 24t19 14q21 7 43.5 9.5t45.5 2.5q47 0 73 -16t26 -44q0 -24 -12 -37.5t-28 -23t-28.5 -20t-14.5 -28.5
q-1 -10 -12.5 -15t-29.5 -5z" />
    <glyph glyph-name="Ohorn" unicode="&#x1a0;" horiz-adv-x="785" 
d="M381 -10q-94 0 -164 36t-108.5 105.5t-38.5 167.5q0 121 44.5 214.5t127.5 147.5t197 54q95 0 164.5 -36t108 -105t38.5 -167q0 -121 -44.5 -215t-127 -148t-197.5 -54zM383 100q75 0 127 39.5t79 108.5t27 157q0 101 -48 150.5t-132 49.5q-74 0 -126 -39t-79 -107.5
t-27 -157.5q0 -102 48 -151.5t131 -49.5zM536 641l-36 68q22 -1 39 -2.5t33 -1.5q56 0 78.5 25.5t29.5 68.5q7 41 60 41q26 0 39.5 -10.5t10.5 -31.5q-10 -67 -52 -112t-110 -45h-92z" />
    <glyph glyph-name="uni1EDA" unicode="&#x1eda;" horiz-adv-x="785" 
d="M381 -10q-94 0 -164 36t-108.5 105.5t-38.5 167.5q0 121 44.5 214.5t127.5 147.5t197 54q95 0 164.5 -36t108 -105t38.5 -167q0 -121 -44.5 -215t-127 -148t-197.5 -54zM383 100q75 0 127 39.5t79 108.5t27 157q0 101 -48 150.5t-132 49.5q-74 0 -126 -39t-79 -107.5
t-27 -157.5q0 -102 48 -151.5t131 -49.5zM536 641l-36 68q22 -1 39 -2.5t33 -1.5q56 0 78.5 25.5t29.5 68.5q7 41 60 41q26 0 39.5 -10.5t10.5 -31.5q-10 -67 -52 -112t-110 -45h-92zM514 771q-18 -18 -37 -13.5t-27 21.5t6 36l85 113q17 22 37.5 24t36 -10t18.5 -30.5
t-15 -36.5z" />
    <glyph glyph-name="uni1EE2" unicode="&#x1ee2;" horiz-adv-x="785" 
d="M381 -10q-94 0 -164 36t-108.5 105.5t-38.5 167.5q0 121 44.5 214.5t127.5 147.5t197 54q95 0 164.5 -36t108 -105t38.5 -167q0 -121 -44.5 -215t-127 -148t-197.5 -54zM383 100q75 0 127 39.5t79 108.5t27 157q0 101 -48 150.5t-132 49.5q-74 0 -126 -39t-79 -107.5
t-27 -157.5q0 -102 48 -151.5t131 -49.5zM536 641l-36 68q22 -1 39 -2.5t33 -1.5q56 0 78.5 25.5t29.5 68.5q7 41 60 41q26 0 39.5 -10.5t10.5 -31.5q-10 -67 -52 -112t-110 -45h-92zM329 -209q-56 0 -56 50q0 35 20.5 55t55.5 20q57 0 57 -49q0 -34 -20.5 -55t-56.5 -21z
" />
    <glyph glyph-name="uni1EDC" unicode="&#x1edc;" horiz-adv-x="785" 
d="M381 -10q-94 0 -164 36t-108.5 105.5t-38.5 167.5q0 121 44.5 214.5t127.5 147.5t197 54q95 0 164.5 -36t108 -105t38.5 -167q0 -121 -44.5 -215t-127 -148t-197.5 -54zM383 100q75 0 127 39.5t79 108.5t27 157q0 101 -48 150.5t-132 49.5q-74 0 -126 -39t-79 -107.5
t-27 -157.5q0 -102 48 -151.5t131 -49.5zM536 641l-36 68q22 -1 39 -2.5t33 -1.5q56 0 78.5 25.5t29.5 68.5q7 41 60 41q26 0 39.5 -10.5t10.5 -31.5q-10 -67 -52 -112t-110 -45h-92zM412 773l-83 100q-17 21 -12.5 40t22 30.5t38 8t34.5 -27.5l65 -106q9 -16 5 -30
t-16 -22.5t-26.5 -7.5t-26.5 15z" />
    <glyph glyph-name="uni1EDE" unicode="&#x1ede;" horiz-adv-x="785" 
d="M381 -10q-94 0 -164 36t-108.5 105.5t-38.5 167.5q0 121 44.5 214.5t127.5 147.5t197 54q95 0 164.5 -36t108 -105t38.5 -167q0 -121 -44.5 -215t-127 -148t-197.5 -54zM383 100q75 0 127 39.5t79 108.5t27 157q0 101 -48 150.5t-132 49.5q-74 0 -126 -39t-79 -107.5
t-27 -157.5q0 -102 48 -151.5t131 -49.5zM536 641l-36 68q22 -1 39 -2.5t33 -1.5q56 0 78.5 25.5t29.5 68.5q7 41 60 41q26 0 39.5 -10.5t10.5 -31.5q-10 -67 -52 -112t-110 -45h-92zM461 757q-37 0 -34 26q3 24 19 37t30.5 23t14.5 24q0 18 -38 18q-8 0 -18 -1t-20 -4
q-16 -5 -24.5 -1t-13.5 17q-4 14 2 24t19 14q21 7 43.5 9.5t45.5 2.5q47 0 73 -16t26 -44q0 -24 -12 -37.5t-28 -23t-28.5 -20t-14.5 -28.5q-1 -10 -12.5 -15t-29.5 -5z" />
    <glyph glyph-name="uni1EE0" unicode="&#x1ee0;" horiz-adv-x="785" 
d="M381 -10q-94 0 -164 36t-108.5 105.5t-38.5 167.5q0 121 44.5 214.5t127.5 147.5t197 54q95 0 164.5 -36t108 -105t38.5 -167q0 -121 -44.5 -215t-127 -148t-197.5 -54zM383 100q75 0 127 39.5t79 108.5t27 157q0 101 -48 150.5t-132 49.5q-74 0 -126 -39t-79 -107.5
t-27 -157.5q0 -102 48 -151.5t131 -49.5zM536 641l-36 68q22 -1 39 -2.5t33 -1.5q56 0 78.5 25.5t29.5 68.5q7 41 60 41q26 0 39.5 -10.5t10.5 -31.5q-10 -67 -52 -112t-110 -45h-92zM291 770q-15 1 -22.5 11t-3.5 26q13 56 47.5 86.5t80.5 30.5q26 0 45 -10t35 -23t32 -23
t37 -10t38.5 13t23.5 34q8 27 38 25q15 -1 22.5 -10.5t3.5 -26.5q-13 -56 -47.5 -86.5t-80.5 -30.5q-26 0 -45.5 10t-35.5 23t-32 23t-36 10q-21 0 -38.5 -13t-23.5 -34q-8 -27 -38 -25z" />
    <glyph glyph-name="Ohungarumlaut" unicode="&#x150;" horiz-adv-x="785" 
d="M381 -10q-94 0 -164 36t-108.5 105.5t-38.5 167.5q0 121 44.5 214.5t127.5 147.5t197 54q95 0 164.5 -36t108 -105t38.5 -167q0 -121 -44.5 -215t-127 -148t-197.5 -54zM383 100q75 0 127 39.5t79 108.5t27 157q0 101 -48 150.5t-132 49.5q-74 0 -126 -39t-79 -107.5
t-27 -157.5q0 -102 48 -151.5t131 -49.5zM576 769q-13 -16 -29 -13t-23.5 17t2.5 31l78 124q13 21 31 24t33 -6.5t18.5 -26.5t-13.5 -37zM429 770q-13 -15 -29 -13t-24.5 15.5t1.5 30.5l70 122q12 21 31 25t35.5 -4.5t21 -24.5t-11.5 -36z" />
    <glyph glyph-name="uni020E" unicode="&#x20e;" horiz-adv-x="785" 
d="M381 -10q-94 0 -164 36t-108.5 105.5t-38.5 167.5q0 121 44.5 214.5t127.5 147.5t197 54q95 0 164.5 -36t108 -105t38.5 -167q0 -121 -44.5 -215t-127 -148t-197.5 -54zM383 100q75 0 127 39.5t79 108.5t27 157q0 101 -48 150.5t-132 49.5q-74 0 -126 -39t-79 -107.5
t-27 -157.5q0 -102 48 -151.5t131 -49.5zM312 758q-16 2 -24.5 15t-1.5 32q21 62 70 98t116 36q73 0 116.5 -38.5t52.5 -98.5q6 -39 -30 -44q-16 -2 -28 6t-14 24q-5 36 -32 56.5t-68 20.5q-38 0 -68.5 -19.5t-44.5 -58.5q-5 -15 -16 -23t-28 -6z" />
    <glyph glyph-name="Omacron" unicode="&#x14c;" horiz-adv-x="785" 
d="M381 -10q-94 0 -164 36t-108.5 105.5t-38.5 167.5q0 121 44.5 214.5t127.5 147.5t197 54q95 0 164.5 -36t108 -105t38.5 -167q0 -121 -44.5 -215t-127 -148t-197.5 -54zM383 100q75 0 127 39.5t79 108.5t27 157q0 101 -48 150.5t-132 49.5q-74 0 -126 -39t-79 -107.5
t-27 -157.5q0 -102 48 -151.5t131 -49.5zM335 806q-40 0 -40 31q0 20 12 31.5t32 11.5h277q40 0 40 -31q0 -19 -12 -31t-32 -12h-277z" />
    <glyph glyph-name="uni1E52" unicode="&#x1e52;" horiz-adv-x="785" 
d="M381 -10q-94 0 -164 36t-108.5 105.5t-38.5 167.5q0 121 44.5 214.5t127.5 147.5t197 54q95 0 164.5 -36t108 -105t38.5 -167q0 -121 -44.5 -215t-127 -148t-197.5 -54zM383 100q75 0 127 39.5t79 108.5t27 157q0 101 -48 150.5t-132 49.5q-74 0 -126 -39t-79 -107.5
t-27 -157.5q0 -102 48 -151.5t131 -49.5zM523 895q-16 -17 -34 -15t-25.5 17.5t6.5 36.5l55 86q14 21 33 23.5t34.5 -8t19 -28t-14.5 -35.5zM349 783q-40 0 -40 31q0 19 11.5 31t33.5 12h239q41 0 41 -31q0 -19 -11.5 -31t-33.5 -12h-240z" />
    <glyph glyph-name="uni1E50" unicode="&#x1e50;" horiz-adv-x="785" 
d="M381 -10q-94 0 -164 36t-108.5 105.5t-38.5 167.5q0 121 44.5 214.5t127.5 147.5t197 54q95 0 164.5 -36t108 -105t38.5 -167q0 -121 -44.5 -215t-127 -148t-197.5 -54zM383 100q75 0 127 39.5t79 108.5t27 157q0 101 -48 150.5t-132 49.5q-74 0 -126 -39t-79 -107.5
t-27 -157.5q0 -102 48 -151.5t131 -49.5zM442 897l-58 75q-15 20 -9 38t23.5 27.5t37 5t31.5 -29.5l39 -84q10 -21 -1 -35t-29.5 -14.5t-33.5 17.5zM349 783q-40 0 -40 31q0 19 11.5 31t33.5 12h239q41 0 41 -31q0 -19 -11.5 -31t-33.5 -12h-240z" />
    <glyph glyph-name="uni01EA" unicode="&#x1ea;" horiz-adv-x="785" 
d="M381 -10q-94 0 -164 36t-108.5 105.5t-38.5 167.5q0 121 44.5 214.5t127.5 147.5t197 54q95 0 164.5 -36t108 -105t38.5 -167q0 -121 -44.5 -215t-127 -148t-197.5 -54zM383 100q75 0 127 39.5t79 108.5t27 157q0 101 -48 150.5t-132 49.5q-74 0 -126 -39t-79 -107.5
t-27 -157.5q0 -102 48 -151.5t131 -49.5zM389 -195q-54 0 -80.5 26.5t-26.5 65.5q0 96 112 145l34 -42q-31 -13 -49 -34t-18 -47q0 -21 14 -34t37 -13q8 0 16 1t18 4q21 6 29.5 -7t4.5 -30.5t-21 -23.5q-31 -11 -70 -11z" />
    <glyph glyph-name="Oslash" unicode="&#xd8;" horiz-adv-x="785" 
d="M381 -10q-94 0 -164 36t-108.5 105.5t-38.5 167.5q0 121 44.5 214.5t127.5 147.5t197 54q95 0 164.5 -36t108 -105t38.5 -167q0 -121 -44.5 -215t-127 -148t-197.5 -54zM383 100q75 0 127 39.5t79 108.5t27 157q0 101 -48 150.5t-132 49.5q-74 0 -126 -39t-79 -107.5
t-27 -157.5q0 -102 48 -151.5t131 -49.5zM182 -28q-13 -18 -30.5 -19t-31.5 9.5t-18 27.5t10 36l61 81l39 53l324 437l40 54l59 79q15 20 32.5 21.5t31.5 -9t17.5 -28t-10.5 -36.5l-59 -79l-39 -54l-324 -436l-40 -54z" />
    <glyph glyph-name="Oslashacute" unicode="&#x1fe;" horiz-adv-x="785" 
d="M381 -10q-94 0 -164 36t-108.5 105.5t-38.5 167.5q0 121 44.5 214.5t127.5 147.5t197 54q95 0 164.5 -36t108 -105t38.5 -167q0 -121 -44.5 -215t-127 -148t-197.5 -54zM383 100q75 0 127 39.5t79 108.5t27 157q0 101 -48 150.5t-132 49.5q-74 0 -126 -39t-79 -107.5
t-27 -157.5q0 -102 48 -151.5t131 -49.5zM182 -28q-13 -18 -30.5 -19t-31.5 9.5t-18 27.5t10 36l61 81l39 53l324 437l40 54l59 79q15 20 32.5 21.5t31.5 -9t17.5 -28t-10.5 -36.5l-59 -79l-39 -54l-324 -436l-40 -54zM514 771q-18 -18 -37 -13.5t-27 21.5t6 36l85 113
q17 22 37.5 24t36 -10t18.5 -30.5t-15 -36.5z" />
    <glyph glyph-name="Otilde" unicode="&#xd5;" horiz-adv-x="785" 
d="M381 -10q-94 0 -164 36t-108.5 105.5t-38.5 167.5q0 121 44.5 214.5t127.5 147.5t197 54q95 0 164.5 -36t108 -105t38.5 -167q0 -121 -44.5 -215t-127 -148t-197.5 -54zM383 100q75 0 127 39.5t79 108.5t27 157q0 101 -48 150.5t-132 49.5q-74 0 -126 -39t-79 -107.5
t-27 -157.5q0 -102 48 -151.5t131 -49.5zM270 770q-15 1 -22 11.5t-2 29.5q17 59 52 86t82 27q28 0 52 -10t45.5 -23t41.5 -23t40 -10q22 0 40 11.5t26 34.5q5 14 13.5 20.5t24.5 5.5q15 -1 22 -11.5t2 -29.5q-16 -58 -52 -85.5t-83 -27.5q-28 0 -52 10t-45 23t-41 23
t-40 10q-22 0 -39.5 -11.5t-26.5 -34.5q-5 -14 -13.5 -20.5t-24.5 -5.5z" />
    <glyph glyph-name="uni1E4C" unicode="&#x1e4c;" horiz-adv-x="785" 
d="M381 -10q-94 0 -164 36t-108.5 105.5t-38.5 167.5q0 121 44.5 214.5t127.5 147.5t197 54q95 0 164.5 -36t108 -105t38.5 -167q0 -121 -44.5 -215t-127 -148t-197.5 -54zM383 100q75 0 127 39.5t79 108.5t27 157q0 101 -48 150.5t-132 49.5q-74 0 -126 -39t-79 -107.5
t-27 -157.5q0 -102 48 -151.5t131 -49.5zM523 895q-16 -17 -34 -15t-25.5 17.5t6.5 36.5l55 86q14 21 33 23.5t34 -8t18 -28.5t-15 -37zM323 763q-14 1 -21 11.5t-1 27.5q26 75 103 75q27 0 51 -11t45 -22t39 -11q16 0 28.5 6t19.5 21q10 22 35 21q14 -1 21 -11.5t1 -27.5
q-26 -75 -103 -75q-27 0 -51 11t-44.5 22t-39.5 11q-16 0 -28.5 -6t-19.5 -21q-10 -22 -35 -21z" />
    <glyph glyph-name="uni1E4E" unicode="&#x1e4e;" horiz-adv-x="785" 
d="M381 -10q-94 0 -164 36t-108.5 105.5t-38.5 167.5q0 121 44.5 214.5t127.5 147.5t197 54q95 0 164.5 -36t108 -105t38.5 -167q0 -121 -44.5 -215t-127 -148t-197.5 -54zM383 100q75 0 127 39.5t79 108.5t27 157q0 101 -48 150.5t-132 49.5q-74 0 -126 -39t-79 -107.5
t-27 -157.5q0 -102 48 -151.5t131 -49.5zM391 909q-54 0 -54 41q0 55 69 55q55 0 55 -42q0 -27 -19 -40.5t-51 -13.5zM580 909q-55 0 -55 41q0 55 70 55q55 0 55 -42q0 -27 -19 -40.5t-51 -13.5zM323 763q-14 1 -21 11.5t-1 27.5q26 75 103 75q27 0 51 -11t45 -22t39 -11
q16 0 28.5 6t19.5 21q10 22 35 21q14 -1 21 -11.5t1 -27.5q-26 -75 -103 -75q-27 0 -51 11t-44.5 22t-39.5 11q-16 0 -28.5 -6t-19.5 -21q-10 -22 -35 -21z" />
    <glyph glyph-name="uni022C" unicode="&#x22c;" horiz-adv-x="785" 
d="M381 -10q-94 0 -164 36t-108.5 105.5t-38.5 167.5q0 121 44.5 214.5t127.5 147.5t197 54q95 0 164.5 -36t108 -105t38.5 -167q0 -121 -44.5 -215t-127 -148t-197.5 -54zM383 100q75 0 127 39.5t79 108.5t27 157q0 101 -48 150.5t-132 49.5q-74 0 -126 -39t-79 -107.5
t-27 -157.5q0 -102 48 -151.5t131 -49.5zM372 924q-41 0 -41 31q0 20 11.5 31.5t33.5 11.5h240q40 0 40 -31q0 -19 -11.5 -31t-33.5 -12h-239zM323 763q-14 1 -21 11.5t-1 27.5q26 75 103 75q27 0 51 -11t45 -22t39 -11q16 0 28.5 6t19.5 21q10 22 35 21q14 -1 21 -11.5
t1 -27.5q-26 -75 -103 -75q-27 0 -51 11t-44.5 22t-39.5 11q-16 0 -28.5 -6t-19.5 -21q-10 -22 -35 -21z" />
    <glyph glyph-name="OE" unicode="&#x152;" horiz-adv-x="1056" 
d="M421 0q-168 0 -258.5 79.5t-91.5 221.5q0 118 44.5 209t135 143t228.5 52h545q54 0 54 -41q0 -29 -16.5 -45t-43.5 -16h-302l-31 -194h272q53 0 53 -41q0 -29 -16.5 -45t-43.5 -16h-280l-33 -205h292q54 0 54 -41q0 -29 -16.5 -45t-43.5 -16h-502zM422 106h93l78 493
h-116q-95 0 -155.5 -38.5t-88.5 -105.5t-28 -152q0 -95 54.5 -146t162.5 -51z" />
    <glyph glyph-name="P" unicode="P" horiz-adv-x="652" 
d="M103 -8q-31 0 -45 20t-9 55l91 575q10 63 74 63h210q117 0 178 -50.5t61 -145.5q0 -115 -71 -180t-206 -65h-178l-33 -208q-10 -64 -72 -64zM224 365h168q72 0 109.5 34.5t37.5 99.5q0 105 -130 105h-147z" />
    <glyph glyph-name="Thorn" unicode="&#xde;" horiz-adv-x="654" 
d="M102 -8q-31 0 -45 20t-8 56l91 576q10 64 75 64q30 0 45 -15.5t10 -41.5l-11 -64h147q117 0 178.5 -50.5t61.5 -144.5q0 -115 -71.5 -180.5t-206.5 -65.5h-179l-14 -90q-10 -64 -73 -64zM205 247h170q72 0 109.5 34.5t37.5 99.5q0 55 -32.5 80t-97.5 25h-149z" />
    <glyph glyph-name="Q" unicode="Q" horiz-adv-x="785" 
d="M623 -118q15 -30 5 -51.5t-32 -30t-45.5 -0.5t-36.5 36l-46 101q-13 28 -36 40.5t-65 12.5h1q-91 3 -157.5 40t-103.5 105t-37 164q0 121 44.5 214.5t127.5 147.5t197 54q95 0 164.5 -36t108 -105t38.5 -167q0 -138 -58 -241t-163 -148q37 -16 60 -63zM383 100
q75 0 127 39.5t79 108.5t27 157q0 101 -48 150.5t-132 49.5q-74 0 -126 -39t-79 -107.5t-27 -157.5q0 -102 48 -151.5t131 -49.5z" />
    <glyph glyph-name="R" unicode="R" horiz-adv-x="686" 
d="M102 -8q-30 0 -44.5 20t-8.5 56l91 573q10 64 75 64h210q117 0 177.5 -52t60.5 -143q0 -96 -53 -150t-139 -69q26 -11 44.5 -34.5t31.5 -56.5l48 -125q15 -39 2 -61t-54 -22q-26 0 -41.5 13.5t-26.5 42.5l-64 168q-13 36 -35 51t-62 15h-103l-35 -226q-10 -64 -74 -64z
M226 377h170q68 0 105.5 31.5t37.5 91.5q0 52 -32 78t-101 26h-144z" />
    <glyph glyph-name="Racute" unicode="&#x154;" horiz-adv-x="686" 
d="M102 -8q-30 0 -44.5 20t-8.5 56l91 573q10 64 75 64h210q117 0 177.5 -52t60.5 -143q0 -96 -53 -150t-139 -69q26 -11 44.5 -34.5t31.5 -56.5l48 -125q15 -39 2 -61t-54 -22q-26 0 -41.5 13.5t-26.5 42.5l-64 168q-13 36 -35 51t-62 15h-103l-35 -226q-10 -64 -74 -64z
M226 377h170q68 0 105.5 31.5t37.5 91.5q0 52 -32 78t-101 26h-144zM469 771q-18 -18 -37 -13.5t-27 21.5t6 36l85 113q17 22 37.5 24t36 -10t18.5 -30.5t-15 -36.5z" />
    <glyph glyph-name="Rcaron" unicode="&#x158;" horiz-adv-x="686" 
d="M102 -8q-30 0 -44.5 20t-8.5 56l91 573q10 64 75 64h210q117 0 177.5 -52t60.5 -143q0 -96 -53 -150t-139 -69q26 -11 44.5 -34.5t31.5 -56.5l48 -125q15 -39 2 -61t-54 -22q-26 0 -41.5 13.5t-26.5 42.5l-64 168q-13 36 -35 51t-62 15h-103l-35 -226q-10 -64 -74 -64z
M226 377h170q68 0 105.5 31.5t37.5 91.5q0 52 -32 78t-101 26h-144zM415 753q-24 0 -40.5 12t-30.5 34l-60 96q-10 17 -6 30t16.5 19.5t28 3t27.5 -19.5l72 -93l96 100q12 13 27 14t27 -6.5t15 -19.5t-8 -26l-83 -102q-33 -42 -81 -42z" />
    <glyph glyph-name="uni0156" unicode="&#x156;" horiz-adv-x="686" 
d="M102 -8q-30 0 -44.5 20t-8.5 56l91 573q10 64 75 64h210q117 0 177.5 -52t60.5 -143q0 -96 -53 -150t-139 -69q26 -11 44.5 -34.5t31.5 -56.5l48 -125q15 -39 2 -61t-54 -22q-26 0 -41.5 13.5t-26.5 42.5l-64 168q-13 36 -35 51t-62 15h-103l-35 -226q-10 -64 -74 -64z
M226 377h170q68 0 105.5 31.5t37.5 91.5q0 52 -32 78t-101 26h-144zM303 -262q-16 -15 -32.5 -11.5t-21.5 18t12 31.5q17 18 24 40q-58 3 -58 51q0 32 20.5 49t53.5 17q61 0 61 -56q0 -36 -16.5 -75t-42.5 -64z" />
    <glyph glyph-name="uni0210" unicode="&#x210;" horiz-adv-x="686" 
d="M102 -8q-30 0 -44.5 20t-8.5 56l91 573q10 64 75 64h210q117 0 177.5 -52t60.5 -143q0 -96 -53 -150t-139 -69q26 -11 44.5 -34.5t31.5 -56.5l48 -125q15 -39 2 -61t-54 -22q-26 0 -41.5 13.5t-26.5 42.5l-64 168q-13 36 -35 51t-62 15h-103l-35 -226q-10 -64 -74 -64z
M226 377h170q68 0 105.5 31.5t37.5 91.5q0 52 -32 78t-101 26h-144zM451 773l-71 111q-13 21 -6 38.5t24.5 25.5t36 3t28.5 -29l48 -118q8 -19 -2.5 -33t-28 -15.5t-29.5 17.5zM304 774l-78 112q-14 20 -7.5 37t24 25t36.5 2.5t29 -28.5l55 -120q9 -19 -1 -32.5t-27 -14
t-31 18.5z" />
    <glyph glyph-name="uni1E5A" unicode="&#x1e5a;" horiz-adv-x="686" 
d="M102 -8q-30 0 -44.5 20t-8.5 56l91 573q10 64 75 64h210q117 0 177.5 -52t60.5 -143q0 -96 -53 -150t-139 -69q26 -11 44.5 -34.5t31.5 -56.5l48 -125q15 -39 2 -61t-54 -22q-26 0 -41.5 13.5t-26.5 42.5l-64 168q-13 36 -35 51t-62 15h-103l-35 -226q-10 -64 -74 -64z
M226 377h170q68 0 105.5 31.5t37.5 91.5q0 52 -32 78t-101 26h-144zM282 -209q-56 0 -56 50q0 35 20.5 55t55.5 20q57 0 57 -49q0 -34 -20.5 -55t-56.5 -21z" />
    <glyph glyph-name="uni0212" unicode="&#x212;" horiz-adv-x="686" 
d="M102 -8q-30 0 -44.5 20t-8.5 56l91 573q10 64 75 64h210q117 0 177.5 -52t60.5 -143q0 -96 -53 -150t-139 -69q26 -11 44.5 -34.5t31.5 -56.5l48 -125q15 -39 2 -61t-54 -22q-26 0 -41.5 13.5t-26.5 42.5l-64 168q-13 36 -35 51t-62 15h-103l-35 -226q-10 -64 -74 -64z
M226 377h170q68 0 105.5 31.5t37.5 91.5q0 52 -32 78t-101 26h-144zM267 758q-16 2 -24.5 15t-1.5 32q21 62 70 98t116 36q73 0 116.5 -38.5t52.5 -98.5q6 -39 -30 -44q-16 -2 -28 6t-14 24q-5 36 -32 56.5t-68 20.5q-38 0 -68.5 -19.5t-44.5 -58.5q-5 -15 -16 -23t-28 -6z
" />
    <glyph glyph-name="uni1E5E" unicode="&#x1e5e;" horiz-adv-x="686" 
d="M102 -8q-30 0 -44.5 20t-8.5 56l91 573q10 64 75 64h210q117 0 177.5 -52t60.5 -143q0 -96 -53 -150t-139 -69q26 -11 44.5 -34.5t31.5 -56.5l48 -125q15 -39 2 -61t-54 -22q-26 0 -41.5 13.5t-26.5 42.5l-64 168q-13 36 -35 51t-62 15h-103l-35 -226q-10 -64 -74 -64z
M226 377h170q68 0 105.5 31.5t37.5 91.5q0 52 -32 78t-101 26h-144zM171 -165q-40 0 -40 31q0 20 12 31.5t32 11.5h247q40 0 40 -31q0 -19 -12 -31t-32 -12h-247z" />
    <glyph glyph-name="S" unicode="S" horiz-adv-x="631" 
d="M300 -10q-63 0 -125.5 14t-114.5 45q-23 14 -28 36t4.5 41t29 27t45.5 -7q47 -26 98.5 -37t102.5 -11q70 0 110.5 27t40.5 71q0 33 -24 55.5t-82 35.5l-109 26q-73 17 -116 61.5t-43 118.5q0 70 38.5 119.5t102.5 76t139 26.5q53 0 113 -14.5t109 -47.5
q21 -14 25.5 -35.5t-4.5 -40t-29.5 -24.5t-50.5 12q-35 21 -79 31.5t-86 10.5q-67 0 -109 -28t-42 -75q0 -38 22 -58t65 -31l109 -26q89 -21 133.5 -67t44.5 -111q0 -73 -40 -122.5t-106 -74t-144 -24.5z" />
    <glyph glyph-name="Sacute" unicode="&#x15a;" horiz-adv-x="631" 
d="M300 -10q-63 0 -125.5 14t-114.5 45q-23 14 -28 36t4.5 41t29 27t45.5 -7q47 -26 98.5 -37t102.5 -11q70 0 110.5 27t40.5 71q0 33 -24 55.5t-82 35.5l-109 26q-73 17 -116 61.5t-43 118.5q0 70 38.5 119.5t102.5 76t139 26.5q53 0 113 -14.5t109 -47.5
q21 -14 25.5 -35.5t-4.5 -40t-29.5 -24.5t-50.5 12q-35 21 -79 31.5t-86 10.5q-67 0 -109 -28t-42 -75q0 -38 22 -58t65 -31l109 -26q89 -21 133.5 -67t44.5 -111q0 -73 -40 -122.5t-106 -74t-144 -24.5zM440 771q-18 -18 -37 -13.5t-27 21.5t6 36l85 113q17 22 37.5 24
t36 -10t18.5 -30.5t-15 -36.5z" />
    <glyph glyph-name="uni1E64" unicode="&#x1e64;" horiz-adv-x="631" 
d="M300 -10q-63 0 -125.5 14t-114.5 45q-23 14 -28 36t4.5 41t29 27t45.5 -7q47 -26 98.5 -37t102.5 -11q70 0 110.5 27t40.5 71q0 33 -24 55.5t-82 35.5l-109 26q-73 17 -116 61.5t-43 118.5q0 70 38.5 119.5t102.5 76t139 26.5q53 0 113 -14.5t109 -47.5
q21 -14 25.5 -35.5t-4.5 -40t-29.5 -24.5t-50.5 12q-35 21 -79 31.5t-86 10.5q-67 0 -109 -28t-42 -75q0 -38 22 -58t65 -31l109 -26q89 -21 133.5 -67t44.5 -111q0 -73 -40 -122.5t-106 -74t-144 -24.5zM356 959q-55 0 -55 42q0 28 19.5 41.5t50.5 13.5q26 0 40.5 -10.5
t14.5 -31.5q0 -25 -18 -40t-52 -15zM440 773q-15 -18 -34 -14t-28.5 20t1.5 34l96 153q15 23 35 25t36 -9.5t21 -30.5t-10 -37z" />
    <glyph glyph-name="Scaron" unicode="&#x160;" horiz-adv-x="631" 
d="M300 -10q-63 0 -125.5 14t-114.5 45q-23 14 -28 36t4.5 41t29 27t45.5 -7q47 -26 98.5 -37t102.5 -11q70 0 110.5 27t40.5 71q0 33 -24 55.5t-82 35.5l-109 26q-73 17 -116 61.5t-43 118.5q0 70 38.5 119.5t102.5 76t139 26.5q53 0 113 -14.5t109 -47.5
q21 -14 25.5 -35.5t-4.5 -40t-29.5 -24.5t-50.5 12q-35 21 -79 31.5t-86 10.5q-67 0 -109 -28t-42 -75q0 -38 22 -58t65 -31l109 -26q89 -21 133.5 -67t44.5 -111q0 -73 -40 -122.5t-106 -74t-144 -24.5zM386 753q-24 0 -40.5 12t-30.5 34l-60 96q-10 17 -6 30t16.5 19.5
t28 3t27.5 -19.5l72 -93l96 100q12 13 27 14t27 -6.5t15 -19.5t-8 -26l-83 -102q-33 -42 -81 -42z" />
    <glyph glyph-name="uni1E66" unicode="&#x1e66;" horiz-adv-x="631" 
d="M300 -10q-63 0 -125.5 14t-114.5 45q-23 14 -28 36t4.5 41t29 27t45.5 -7q47 -26 98.5 -37t102.5 -11q70 0 110.5 27t40.5 71q0 33 -24 55.5t-82 35.5l-109 26q-73 17 -116 61.5t-43 118.5q0 70 38.5 119.5t102.5 76t139 26.5q53 0 113 -14.5t109 -47.5
q21 -14 25.5 -35.5t-4.5 -40t-29.5 -24.5t-50.5 12q-35 21 -79 31.5t-86 10.5q-67 0 -109 -28t-42 -75q0 -38 22 -58t65 -31l109 -26q89 -21 133.5 -67t44.5 -111q0 -73 -40 -122.5t-106 -74t-144 -24.5zM414 958q-55 0 -55 42q0 28 19.5 41.5t50.5 13.5q55 0 55 -42
q0 -25 -18 -40t-52 -15zM387 754q-25 0 -42 11.5t-31 33.5l-57 94q-10 17 0.5 29.5t29 14.5t32.5 -15l76 -88l106 91q16 14 32.5 10t24 -17t-4.5 -26l-86 -98q-18 -21 -38.5 -30.5t-41.5 -9.5z" />
    <glyph glyph-name="Scedilla" unicode="&#x15e;" horiz-adv-x="631" 
d="M300 -10q-63 0 -125.5 14t-114.5 45q-23 14 -28 36t4.5 41t29 27t45.5 -7q47 -26 98.5 -37t102.5 -11q70 0 110.5 27t40.5 71q0 33 -24 55.5t-82 35.5l-109 26q-73 17 -116 61.5t-43 118.5q0 70 38.5 119.5t102.5 76t139 26.5q53 0 113 -14.5t109 -47.5
q21 -14 25.5 -35.5t-4.5 -40t-29.5 -24.5t-50.5 12q-35 21 -79 31.5t-86 10.5q-67 0 -109 -28t-42 -75q0 -38 22 -58t65 -31l109 -26q89 -21 133.5 -67t44.5 -111q0 -73 -40 -122.5t-106 -74t-144 -24.5zM280 -195q-37 0 -72 9q-16 4 -21.5 15.5t-2.5 23.5t13.5 18.5
t26.5 1.5q24 -8 51 -8q57 0 57 32q0 21 -34 21q-13 0 -30 -3q-18 -3 -24 3q-7 7 -3 23l25 79h66l-18 -57h9q39 0 61 -17t22 -49q0 -42 -36 -67t-90 -25z" />
    <glyph glyph-name="Scircumflex" unicode="&#x15c;" horiz-adv-x="631" 
d="M300 -10q-63 0 -125.5 14t-114.5 45q-23 14 -28 36t4.5 41t29 27t45.5 -7q47 -26 98.5 -37t102.5 -11q70 0 110.5 27t40.5 71q0 33 -24 55.5t-82 35.5l-109 26q-73 17 -116 61.5t-43 118.5q0 70 38.5 119.5t102.5 76t139 26.5q53 0 113 -14.5t109 -47.5
q21 -14 25.5 -35.5t-4.5 -40t-29.5 -24.5t-50.5 12q-35 21 -79 31.5t-86 10.5q-67 0 -109 -28t-42 -75q0 -38 22 -58t65 -31l109 -26q89 -21 133.5 -67t44.5 -111q0 -73 -40 -122.5t-106 -74t-144 -24.5zM297 770q-16 -17 -35.5 -14t-28 18.5t6.5 33.5l83 103q34 41 80 41
q24 0 41 -12t30 -35l59 -95q11 -17 6.5 -30.5t-17.5 -20t-29 -3.5t-28 19l-71 94z" />
    <glyph glyph-name="uni0218" unicode="&#x218;" horiz-adv-x="631" 
d="M300 -10q-63 0 -125.5 14t-114.5 45q-23 14 -28 36t4.5 41t29 27t45.5 -7q47 -26 98.5 -37t102.5 -11q70 0 110.5 27t40.5 71q0 33 -24 55.5t-82 35.5l-109 26q-73 17 -116 61.5t-43 118.5q0 70 38.5 119.5t102.5 76t139 26.5q53 0 113 -14.5t109 -47.5
q21 -14 25.5 -35.5t-4.5 -40t-29.5 -24.5t-50.5 12q-35 21 -79 31.5t-86 10.5q-67 0 -109 -28t-42 -75q0 -38 22 -58t65 -31l109 -26q89 -21 133.5 -67t44.5 -111q0 -73 -40 -122.5t-106 -74t-144 -24.5zM288 -262q-16 -15 -32.5 -11.5t-21.5 18t12 31.5q17 18 24 40
q-58 3 -58 51q0 32 20.5 49t53.5 17q61 0 61 -56q0 -36 -16.5 -75t-42.5 -64z" />
    <glyph glyph-name="uni1E60" unicode="&#x1e60;" horiz-adv-x="631" 
d="M300 -10q-63 0 -125.5 14t-114.5 45q-23 14 -28 36t4.5 41t29 27t45.5 -7q47 -26 98.5 -37t102.5 -11q70 0 110.5 27t40.5 71q0 33 -24 55.5t-82 35.5l-109 26q-73 17 -116 61.5t-43 118.5q0 70 38.5 119.5t102.5 76t139 26.5q53 0 113 -14.5t109 -47.5
q21 -14 25.5 -35.5t-4.5 -40t-29.5 -24.5t-50.5 12q-35 21 -79 31.5t-86 10.5q-67 0 -109 -28t-42 -75q0 -38 22 -58t65 -31l109 -26q89 -21 133.5 -67t44.5 -111q0 -73 -40 -122.5t-106 -74t-144 -24.5zM393 789q-57 0 -57 50q0 35 20.5 55t56.5 20q57 0 57 -49
q0 -34 -20.5 -55t-56.5 -21z" />
    <glyph glyph-name="uni1E62" unicode="&#x1e62;" horiz-adv-x="631" 
d="M300 -10q-63 0 -125.5 14t-114.5 45q-23 14 -28 36t4.5 41t29 27t45.5 -7q47 -26 98.5 -37t102.5 -11q70 0 110.5 27t40.5 71q0 33 -24 55.5t-82 35.5l-109 26q-73 17 -116 61.5t-43 118.5q0 70 38.5 119.5t102.5 76t139 26.5q53 0 113 -14.5t109 -47.5
q21 -14 25.5 -35.5t-4.5 -40t-29.5 -24.5t-50.5 12q-35 21 -79 31.5t-86 10.5q-67 0 -109 -28t-42 -75q0 -38 22 -58t65 -31l109 -26q89 -21 133.5 -67t44.5 -111q0 -73 -40 -122.5t-106 -74t-144 -24.5zM267 -209q-56 0 -56 50q0 35 20.5 55t55.5 20q57 0 57 -49
q0 -34 -20.5 -55t-56.5 -21z" />
    <glyph glyph-name="uni1E68" unicode="&#x1e68;" horiz-adv-x="631" 
d="M300 -10q-63 0 -125.5 14t-114.5 45q-23 14 -28 36t4.5 41t29 27t45.5 -7q47 -26 98.5 -37t102.5 -11q70 0 110.5 27t40.5 71q0 33 -24 55.5t-82 35.5l-109 26q-73 17 -116 61.5t-43 118.5q0 70 38.5 119.5t102.5 76t139 26.5q53 0 113 -14.5t109 -47.5
q21 -14 25.5 -35.5t-4.5 -40t-29.5 -24.5t-50.5 12q-35 21 -79 31.5t-86 10.5q-67 0 -109 -28t-42 -75q0 -38 22 -58t65 -31l109 -26q89 -21 133.5 -67t44.5 -111q0 -73 -40 -122.5t-106 -74t-144 -24.5zM267 -209q-56 0 -56 50q0 35 20.5 55t55.5 20q57 0 57 -49
q0 -34 -20.5 -55t-56.5 -21zM393 789q-57 0 -57 50q0 35 20.5 55t56.5 20q57 0 57 -49q0 -34 -20.5 -55t-56.5 -21z" />
    <glyph glyph-name="uni1E9E" unicode="&#x1e9e;" horiz-adv-x="730" 
d="M422 -10q-43 0 -84 10.5t-76 31.5q-21 12 -24.5 31.5t6 37t27 25t38.5 -4.5q28 -16 55 -21.5t55 -5.5q61 0 94 31t33 84q0 43 -30.5 68.5t-94.5 25.5h-65q-18 0 -30 10.5t-12 28.5q0 61 52 61h61q62 0 96.5 28t34.5 85q0 41 -34.5 67.5t-100.5 26.5q-85 0 -129 -39.5
t-57 -121.5l-63 -396q-9 -61 -70 -61q-31 0 -46 18.5t-10 52.5l63 398q22 137 103 195.5t220 58.5q81 0 136 -24.5t83.5 -66t28.5 -91.5q0 -61 -34.5 -107t-91.5 -67q54 -18 83.5 -62t29.5 -98q0 -59 -28 -106.5t-83 -75t-136 -27.5z" />
    <glyph glyph-name="uni018F" unicode="&#x18f;" horiz-adv-x="785" 
d="M376 -10q-84 0 -146.5 29.5t-101.5 82t-53 122t-1 148.5q6 34 49 34h492q-1 93 -57 146t-157 53q-55 0 -103.5 -11t-93.5 -35q-26 -14 -46 -6t-29 27.5t-3 40.5t30 34q60 32 125.5 46t138.5 14q98 0 172 -39t115.5 -110t41.5 -166q0 -83 -23 -157t-69.5 -131
t-116.5 -89.5t-164 -32.5zM382 96q94 0 149 58t74 148h-408q-3 -94 42.5 -150t142.5 -56z" />
    <glyph glyph-name="T" unicode="T" horiz-adv-x="621" 
d="M273 -8q-31 0 -45 20t-9 55l84 531h-185q-27 0 -42 12t-15 32q0 30 17.5 46.5t46.5 16.5h508q57 0 57 -43q0 -30 -17 -47t-47 -17h-195l-86 -542q-11 -64 -72 -64z" />
    <glyph glyph-name="Tbar" unicode="&#x166;" horiz-adv-x="621" 
d="M273 -8q-31 0 -45 20t-9 55l84 531h-185q-27 0 -42 12t-15 32q0 30 17.5 46.5t46.5 16.5h508q57 0 57 -43q0 -30 -17 -47t-47 -17h-195l-86 -542q-11 -64 -72 -64zM169 310q-52 0 -52 39q0 26 15.5 40.5t42.5 14.5h312q52 0 52 -38q0 -26 -15.5 -41t-42.5 -15h-312z" />
    <glyph glyph-name="Tcaron" unicode="&#x164;" horiz-adv-x="621" 
d="M273 -8q-31 0 -45 20t-9 55l84 531h-185q-27 0 -42 12t-15 32q0 30 17.5 46.5t46.5 16.5h508q57 0 57 -43q0 -30 -17 -47t-47 -17h-195l-86 -542q-11 -64 -72 -64zM389 753q-24 0 -40.5 12t-30.5 34l-60 96q-10 17 -6 30t16.5 19.5t28 3t27.5 -19.5l72 -93l96 100
q12 13 27 14t27 -6.5t15 -19.5t-8 -26l-83 -102q-33 -42 -81 -42z" />
    <glyph glyph-name="uni0162" unicode="&#x162;" horiz-adv-x="621" 
d="M273 -8q-31 0 -45 20t-9 55l84 531h-185q-27 0 -42 12t-15 32q0 30 17.5 46.5t46.5 16.5h508q57 0 57 -43q0 -30 -17 -47t-47 -17h-195l-86 -542q-11 -64 -72 -64zM252 -195q-37 0 -72 9q-16 4 -21.5 15.5t-2.5 23.5t13.5 18.5t26.5 1.5q24 -8 51 -8q57 0 57 32
q0 21 -34 21q-13 0 -30 -3q-18 -3 -24 3q-7 7 -3 23l25 79h66l-18 -57h9q39 0 61 -17t22 -49q0 -42 -36 -67t-90 -25z" />
    <glyph glyph-name="uni021A" unicode="&#x21a;" horiz-adv-x="621" 
d="M273 -8q-31 0 -45 20t-9 55l84 531h-185q-27 0 -42 12t-15 32q0 30 17.5 46.5t46.5 16.5h508q57 0 57 -43q0 -30 -17 -47t-47 -17h-195l-86 -542q-11 -64 -72 -64zM260 -262q-16 -15 -32.5 -11.5t-21.5 18t12 31.5q17 18 24 40q-58 3 -58 51q0 32 20.5 49t53.5 17
q61 0 61 -56q0 -36 -16.5 -75t-42.5 -64z" />
    <glyph glyph-name="uni1E6C" unicode="&#x1e6c;" horiz-adv-x="621" 
d="M273 -8q-31 0 -45 20t-9 55l84 531h-185q-27 0 -42 12t-15 32q0 30 17.5 46.5t46.5 16.5h508q57 0 57 -43q0 -30 -17 -47t-47 -17h-195l-86 -542q-11 -64 -72 -64zM239 -209q-56 0 -56 50q0 35 20.5 55t55.5 20q57 0 57 -49q0 -34 -20.5 -55t-56.5 -21z" />
    <glyph glyph-name="uni1E6E" unicode="&#x1e6e;" horiz-adv-x="621" 
d="M273 -8q-31 0 -45 20t-9 55l84 531h-185q-27 0 -42 12t-15 32q0 30 17.5 46.5t46.5 16.5h508q57 0 57 -43q0 -30 -17 -47t-47 -17h-195l-86 -542q-11 -64 -72 -64zM128 -165q-40 0 -40 31q0 20 12 31.5t32 11.5h247q40 0 40 -31q0 -19 -12 -31t-32 -12h-247z" />
    <glyph glyph-name="U" unicode="U" horiz-adv-x="738" 
d="M341 -10q-90 0 -154 35t-93 105.5t-12 176.5l55 346q9 60 70 60q32 0 46.5 -18.5t9.5 -52.5l-54 -344q-15 -97 20.5 -147.5t120.5 -50.5q82 0 129.5 42.5t62.5 134.5l60 376q9 60 70 60q31 0 45.5 -18.5t9.5 -52.5l-57 -363q-22 -142 -100.5 -215.5t-228.5 -73.5z" />
    <glyph glyph-name="Uacute" unicode="&#xda;" horiz-adv-x="738" 
d="M341 -10q-90 0 -154 35t-93 105.5t-12 176.5l55 346q9 60 70 60q32 0 46.5 -18.5t9.5 -52.5l-54 -344q-15 -97 20.5 -147.5t120.5 -50.5q82 0 129.5 42.5t62.5 134.5l60 376q9 60 70 60q31 0 45.5 -18.5t9.5 -52.5l-57 -363q-22 -142 -100.5 -215.5t-228.5 -73.5z
M502 771q-18 -18 -37 -13.5t-27 21.5t6 36l85 113q17 22 37.5 24t36 -10t18.5 -30.5t-15 -36.5z" />
    <glyph glyph-name="Ubreve" unicode="&#x16c;" horiz-adv-x="738" 
d="M341 -10q-90 0 -154 35t-93 105.5t-12 176.5l55 346q9 60 70 60q32 0 46.5 -18.5t9.5 -52.5l-54 -344q-15 -97 20.5 -147.5t120.5 -50.5q82 0 129.5 42.5t62.5 134.5l60 376q9 60 70 60q31 0 45.5 -18.5t9.5 -52.5l-57 -363q-22 -142 -100.5 -215.5t-228.5 -73.5z
M456 760q-73 0 -116 38.5t-53 98.5q-6 39 30 44q17 2 28.5 -5.5t13.5 -24.5q5 -36 32 -56t68 -20q38 0 69 19t44 58q5 15 16 23t28 6t25 -14.5t1 -32.5q-20 -61 -69.5 -97.5t-116.5 -36.5z" />
    <glyph glyph-name="Ucircumflex" unicode="&#xdb;" horiz-adv-x="738" 
d="M341 -10q-90 0 -154 35t-93 105.5t-12 176.5l55 346q9 60 70 60q32 0 46.5 -18.5t9.5 -52.5l-54 -344q-15 -97 20.5 -147.5t120.5 -50.5q82 0 129.5 42.5t62.5 134.5l60 376q9 60 70 60q31 0 45.5 -18.5t9.5 -52.5l-57 -363q-22 -142 -100.5 -215.5t-228.5 -73.5z
M359 770q-16 -17 -35.5 -14t-28 18.5t6.5 33.5l83 103q34 41 80 41q24 0 41 -12t30 -35l59 -95q11 -17 6.5 -30.5t-17.5 -20t-29 -3.5t-28 19l-71 94z" />
    <glyph glyph-name="uni0214" unicode="&#x214;" horiz-adv-x="738" 
d="M341 -10q-90 0 -154 35t-93 105.5t-12 176.5l55 346q9 60 70 60q32 0 46.5 -18.5t9.5 -52.5l-54 -344q-15 -97 20.5 -147.5t120.5 -50.5q82 0 129.5 42.5t62.5 134.5l60 376q9 60 70 60q31 0 45.5 -18.5t9.5 -52.5l-57 -363q-22 -142 -100.5 -215.5t-228.5 -73.5z
M484 773l-71 111q-13 21 -6 38.5t24.5 25.5t36 3t28.5 -29l48 -118q8 -19 -2.5 -33t-28 -15.5t-29.5 17.5zM337 774l-78 112q-14 20 -7.5 37t24 25t36.5 2.5t29 -28.5l55 -120q9 -19 -1 -32.5t-27 -14t-31 18.5z" />
    <glyph glyph-name="Udieresis" unicode="&#xdc;" horiz-adv-x="738" 
d="M341 -10q-90 0 -154 35t-93 105.5t-12 176.5l55 346q9 60 70 60q32 0 46.5 -18.5t9.5 -52.5l-54 -344q-15 -97 20.5 -147.5t120.5 -50.5q82 0 129.5 42.5t62.5 134.5l60 376q9 60 70 60q31 0 45.5 -18.5t9.5 -52.5l-57 -363q-22 -142 -100.5 -215.5t-228.5 -73.5z
M549 786q-54 0 -54 48q0 34 19 54.5t53 20.5q54 0 54 -48q0 -34 -18.5 -54.5t-53.5 -20.5zM360 786q-53 0 -53 48q0 34 19 54.5t53 20.5q53 0 53 -48q0 -34 -18.5 -54.5t-53.5 -20.5z" />
    <glyph glyph-name="uni1EE4" unicode="&#x1ee4;" horiz-adv-x="738" 
d="M341 -10q-90 0 -154 35t-93 105.5t-12 176.5l55 346q9 60 70 60q32 0 46.5 -18.5t9.5 -52.5l-54 -344q-15 -97 20.5 -147.5t120.5 -50.5q82 0 129.5 42.5t62.5 134.5l60 376q9 60 70 60q31 0 45.5 -18.5t9.5 -52.5l-57 -363q-22 -142 -100.5 -215.5t-228.5 -73.5z
M297 -209q-56 0 -56 50q0 35 20.5 55t55.5 20q57 0 57 -49q0 -34 -20.5 -55t-56.5 -21z" />
    <glyph glyph-name="Ugrave" unicode="&#xd9;" horiz-adv-x="738" 
d="M341 -10q-90 0 -154 35t-93 105.5t-12 176.5l55 346q9 60 70 60q32 0 46.5 -18.5t9.5 -52.5l-54 -344q-15 -97 20.5 -147.5t120.5 -50.5q82 0 129.5 42.5t62.5 134.5l60 376q9 60 70 60q31 0 45.5 -18.5t9.5 -52.5l-57 -363q-22 -142 -100.5 -215.5t-228.5 -73.5z
M400 773l-83 100q-17 21 -12.5 40t22 30.5t38 8t34.5 -27.5l65 -106q9 -16 5 -30t-16 -22.5t-26.5 -7.5t-26.5 15z" />
    <glyph glyph-name="uni1EE6" unicode="&#x1ee6;" horiz-adv-x="738" 
d="M341 -10q-90 0 -154 35t-93 105.5t-12 176.5l55 346q9 60 70 60q32 0 46.5 -18.5t9.5 -52.5l-54 -344q-15 -97 20.5 -147.5t120.5 -50.5q82 0 129.5 42.5t62.5 134.5l60 376q9 60 70 60q31 0 45.5 -18.5t9.5 -52.5l-57 -363q-22 -142 -100.5 -215.5t-228.5 -73.5z
M449 757q-37 0 -34 26q3 24 19 37t30.5 23t14.5 24q0 18 -38 18q-8 0 -18 -1t-20 -4q-16 -5 -24.5 -1t-13.5 17q-4 14 2 24t19 14q21 7 43.5 9.5t45.5 2.5q47 0 73 -16t26 -44q0 -24 -12 -37.5t-28 -23t-28.5 -20t-14.5 -28.5q-1 -10 -12.5 -15t-29.5 -5z" />
    <glyph glyph-name="Uhorn" unicode="&#x1af;" horiz-adv-x="738" 
d="M341 -10q-90 0 -154 35t-93 105.5t-12 176.5l55 346q9 60 70 60q32 0 46.5 -18.5t9.5 -52.5l-54 -344q-15 -97 20.5 -147.5t120.5 -50.5q82 0 129.5 42.5t62.5 134.5l60 376q9 60 70 60q31 0 45.5 -18.5t9.5 -52.5l-57 -363q-22 -142 -100.5 -215.5t-228.5 -73.5z
M704 641l-67 45l3 19q54 1 77 21.5t32 66.5q8 39 60 39q26 0 39.5 -10t10.5 -29q-10 -66 -51 -106t-104 -46z" />
    <glyph glyph-name="uni1EE8" unicode="&#x1ee8;" horiz-adv-x="738" 
d="M341 -10q-90 0 -154 35t-93 105.5t-12 176.5l55 346q9 60 70 60q32 0 46.5 -18.5t9.5 -52.5l-54 -344q-15 -97 20.5 -147.5t120.5 -50.5q82 0 129.5 42.5t62.5 134.5l60 376q9 60 70 60q31 0 45.5 -18.5t9.5 -52.5l-57 -363q-22 -142 -100.5 -215.5t-228.5 -73.5z
M704 641l-67 45l3 19q54 1 77 21.5t32 66.5q8 39 60 39q26 0 39.5 -10t10.5 -29q-10 -66 -51 -106t-104 -46zM502 771q-18 -18 -37 -13.5t-27 21.5t6 36l85 113q17 22 37.5 24t36 -10t18.5 -30.5t-15 -36.5z" />
    <glyph glyph-name="uni1EF0" unicode="&#x1ef0;" horiz-adv-x="738" 
d="M341 -10q-90 0 -154 35t-93 105.5t-12 176.5l55 346q9 60 70 60q32 0 46.5 -18.5t9.5 -52.5l-54 -344q-15 -97 20.5 -147.5t120.5 -50.5q82 0 129.5 42.5t62.5 134.5l60 376q9 60 70 60q31 0 45.5 -18.5t9.5 -52.5l-57 -363q-22 -142 -100.5 -215.5t-228.5 -73.5z
M704 641l-67 45l3 19q54 1 77 21.5t32 66.5q8 39 60 39q26 0 39.5 -10t10.5 -29q-10 -66 -51 -106t-104 -46zM297 -209q-56 0 -56 50q0 35 20.5 55t55.5 20q57 0 57 -49q0 -34 -20.5 -55t-56.5 -21z" />
    <glyph glyph-name="uni1EEA" unicode="&#x1eea;" horiz-adv-x="738" 
d="M341 -10q-90 0 -154 35t-93 105.5t-12 176.5l55 346q9 60 70 60q32 0 46.5 -18.5t9.5 -52.5l-54 -344q-15 -97 20.5 -147.5t120.5 -50.5q82 0 129.5 42.5t62.5 134.5l60 376q9 60 70 60q31 0 45.5 -18.5t9.5 -52.5l-57 -363q-22 -142 -100.5 -215.5t-228.5 -73.5z
M704 641l-67 45l3 19q54 1 77 21.5t32 66.5q8 39 60 39q26 0 39.5 -10t10.5 -29q-10 -66 -51 -106t-104 -46zM400 773l-83 100q-17 21 -12.5 40t22 30.5t38 8t34.5 -27.5l65 -106q9 -16 5 -30t-16 -22.5t-26.5 -7.5t-26.5 15z" />
    <glyph glyph-name="uni1EEC" unicode="&#x1eec;" horiz-adv-x="738" 
d="M341 -10q-90 0 -154 35t-93 105.5t-12 176.5l55 346q9 60 70 60q32 0 46.5 -18.5t9.5 -52.5l-54 -344q-15 -97 20.5 -147.5t120.5 -50.5q82 0 129.5 42.5t62.5 134.5l60 376q9 60 70 60q31 0 45.5 -18.5t9.5 -52.5l-57 -363q-22 -142 -100.5 -215.5t-228.5 -73.5z
M704 641l-67 45l3 19q54 1 77 21.5t32 66.5q8 39 60 39q26 0 39.5 -10t10.5 -29q-10 -66 -51 -106t-104 -46zM449 757q-37 0 -34 26q3 24 19 37t30.5 23t14.5 24q0 18 -38 18q-8 0 -18 -1t-20 -4q-16 -5 -24.5 -1t-13.5 17q-4 14 2 24t19 14q21 7 43.5 9.5t45.5 2.5
q47 0 73 -16t26 -44q0 -24 -12 -37.5t-28 -23t-28.5 -20t-14.5 -28.5q-1 -10 -12.5 -15t-29.5 -5z" />
    <glyph glyph-name="uni1EEE" unicode="&#x1eee;" horiz-adv-x="738" 
d="M341 -10q-90 0 -154 35t-93 105.5t-12 176.5l55 346q9 60 70 60q32 0 46.5 -18.5t9.5 -52.5l-54 -344q-15 -97 20.5 -147.5t120.5 -50.5q82 0 129.5 42.5t62.5 134.5l60 376q9 60 70 60q31 0 45.5 -18.5t9.5 -52.5l-57 -363q-22 -142 -100.5 -215.5t-228.5 -73.5z
M704 641l-67 45l3 19q54 1 77 21.5t32 66.5q8 39 60 39q26 0 39.5 -10t10.5 -29q-10 -66 -51 -106t-104 -46zM279 770q-15 1 -22.5 11t-3.5 26q13 56 47.5 86.5t80.5 30.5q26 0 45 -10t35 -23t32 -23t37 -10t38.5 13t23.5 34q8 27 38 25q15 -1 22.5 -10.5t3.5 -26.5
q-13 -56 -47.5 -86.5t-80.5 -30.5q-26 0 -45.5 10t-35.5 23t-32 23t-36 10q-21 0 -38.5 -13t-23.5 -34q-8 -27 -38 -25z" />
    <glyph glyph-name="Uhungarumlaut" unicode="&#x170;" horiz-adv-x="738" 
d="M341 -10q-90 0 -154 35t-93 105.5t-12 176.5l55 346q9 60 70 60q32 0 46.5 -18.5t9.5 -52.5l-54 -344q-15 -97 20.5 -147.5t120.5 -50.5q82 0 129.5 42.5t62.5 134.5l60 376q9 60 70 60q31 0 45.5 -18.5t9.5 -52.5l-57 -363q-22 -142 -100.5 -215.5t-228.5 -73.5z
M564 769q-13 -16 -29 -13t-23.5 17t2.5 31l78 124q13 21 31 24t33 -6.5t18.5 -26.5t-13.5 -37zM417 770q-13 -15 -29 -13t-24.5 15.5t1.5 30.5l70 122q12 21 31 25t35.5 -4.5t21 -24.5t-11.5 -36z" />
    <glyph glyph-name="uni0216" unicode="&#x216;" horiz-adv-x="738" 
d="M341 -10q-90 0 -154 35t-93 105.5t-12 176.5l55 346q9 60 70 60q32 0 46.5 -18.5t9.5 -52.5l-54 -344q-15 -97 20.5 -147.5t120.5 -50.5q82 0 129.5 42.5t62.5 134.5l60 376q9 60 70 60q31 0 45.5 -18.5t9.5 -52.5l-57 -363q-22 -142 -100.5 -215.5t-228.5 -73.5z
M300 758q-16 2 -24.5 15t-1.5 32q21 62 70 98t116 36q73 0 116.5 -38.5t52.5 -98.5q6 -39 -30 -44q-16 -2 -28 6t-14 24q-5 36 -32 56.5t-68 20.5q-38 0 -68.5 -19.5t-44.5 -58.5q-5 -15 -16 -23t-28 -6z" />
    <glyph glyph-name="Umacron" unicode="&#x16a;" horiz-adv-x="738" 
d="M341 -10q-90 0 -154 35t-93 105.5t-12 176.5l55 346q9 60 70 60q32 0 46.5 -18.5t9.5 -52.5l-54 -344q-15 -97 20.5 -147.5t120.5 -50.5q82 0 129.5 42.5t62.5 134.5l60 376q9 60 70 60q31 0 45.5 -18.5t9.5 -52.5l-57 -363q-22 -142 -100.5 -215.5t-228.5 -73.5z
M323 806q-40 0 -40 31q0 20 12 31.5t32 11.5h277q40 0 40 -31q0 -19 -12 -31t-32 -12h-277z" />
    <glyph glyph-name="uni1E7A" unicode="&#x1e7a;" horiz-adv-x="738" 
d="M341 -10q-90 0 -154 35t-93 105.5t-12 176.5l55 346q9 60 70 60q32 0 46.5 -18.5t9.5 -52.5l-54 -344q-15 -97 20.5 -147.5t120.5 -50.5q82 0 129.5 42.5t62.5 134.5l60 376q9 60 70 60q31 0 45.5 -18.5t9.5 -52.5l-57 -363q-22 -142 -100.5 -215.5t-228.5 -73.5z
M379 906q-55 0 -55 42q0 26 18 40.5t52 14.5q55 0 55 -42q0 -28 -19 -41.5t-51 -13.5zM567 906q-54 0 -54 42q0 26 18 40.5t51 14.5q55 0 55 -42q0 -28 -19 -41.5t-51 -13.5zM338 788q-40 0 -40 31q0 19 11.5 31t33.5 12h239q41 0 41 -31q0 -19 -11.5 -31t-33.5 -12h-240z
" />
    <glyph glyph-name="Uogonek" unicode="&#x172;" horiz-adv-x="738" 
d="M341 -10q-90 0 -154 35t-93 105.5t-12 176.5l55 346q9 60 70 60q32 0 46.5 -18.5t9.5 -52.5l-54 -344q-15 -97 20.5 -147.5t120.5 -50.5q82 0 129.5 42.5t62.5 134.5l60 376q9 60 70 60q31 0 45.5 -18.5t9.5 -52.5l-57 -363q-22 -142 -100.5 -215.5t-228.5 -73.5z
M362 -195q-54 0 -80.5 26.5t-26.5 65.5q0 96 112 145l34 -42q-31 -13 -49 -34t-18 -47q0 -21 14 -34t37 -13q8 0 16 1t18 4q21 6 29.5 -7t4.5 -30.5t-21 -23.5q-31 -11 -70 -11z" />
    <glyph glyph-name="Uring" unicode="&#x16e;" horiz-adv-x="738" 
d="M341 -10q-90 0 -154 35t-93 105.5t-12 176.5l55 346q9 60 70 60q32 0 46.5 -18.5t9.5 -52.5l-54 -344q-15 -97 20.5 -147.5t120.5 -50.5q82 0 129.5 42.5t62.5 134.5l60 376q9 60 70 60q31 0 45.5 -18.5t9.5 -52.5l-57 -363q-22 -142 -100.5 -215.5t-228.5 -73.5z
M464 755q-35 0 -64 16.5t-45.5 44.5t-16.5 62q0 52 36.5 87t89.5 35t89.5 -35t36.5 -87q0 -34 -16.5 -62t-45 -44.5t-64.5 -16.5zM464 812q29 0 47 19t18 47t-18 46.5t-47 18.5q-28 0 -46.5 -18.5t-18.5 -46.5t18.5 -47t46.5 -19z" />
    <glyph glyph-name="Utilde" unicode="&#x168;" horiz-adv-x="738" 
d="M341 -10q-90 0 -154 35t-93 105.5t-12 176.5l55 346q9 60 70 60q32 0 46.5 -18.5t9.5 -52.5l-54 -344q-15 -97 20.5 -147.5t120.5 -50.5q82 0 129.5 42.5t62.5 134.5l60 376q9 60 70 60q31 0 45.5 -18.5t9.5 -52.5l-57 -363q-22 -142 -100.5 -215.5t-228.5 -73.5z
M258 770q-15 1 -22 11.5t-2 29.5q17 59 52 86t82 27q28 0 52 -10t45.5 -23t41.5 -23t40 -10q22 0 40 11.5t26 34.5q5 14 13.5 20.5t24.5 5.5q15 -1 22 -11.5t2 -29.5q-16 -58 -52 -85.5t-83 -27.5q-28 0 -52 10t-45 23t-41 23t-40 10q-22 0 -39.5 -11.5t-26.5 -34.5
q-5 -14 -13.5 -20.5t-24.5 -5.5z" />
    <glyph glyph-name="uni1E78" unicode="&#x1e78;" horiz-adv-x="738" 
d="M341 -10q-90 0 -154 35t-93 105.5t-12 176.5l55 346q9 60 70 60q32 0 46.5 -18.5t9.5 -52.5l-54 -344q-15 -97 20.5 -147.5t120.5 -50.5q82 0 129.5 42.5t62.5 134.5l60 376q9 60 70 60q31 0 45.5 -18.5t9.5 -52.5l-57 -363q-22 -142 -100.5 -215.5t-228.5 -73.5z
M511 895q-16 -17 -34 -15t-25.5 17.5t6.5 36.5l55 86q14 21 33 23.5t34 -8t18 -28.5t-15 -37zM311 763q-14 1 -21 11.5t-1 27.5q26 75 103 75q27 0 51 -11t45 -22t39 -11q16 0 28.5 6t19.5 21q10 22 35 21q14 -1 21 -11.5t1 -27.5q-26 -75 -103 -75q-27 0 -51 11t-44.5 22
t-39.5 11q-16 0 -28.5 -6t-19.5 -21q-10 -22 -35 -21z" />
    <glyph glyph-name="V" unicode="V" horiz-adv-x="713" 
d="M320 -8q-28 0 -45 14.5t-25 42.5l-165 577q-10 35 7 57t49 22q24 0 40 -12t24 -44l131 -485l293 496q14 24 30 34.5t41 10.5q38 0 51.5 -25.5t-5.5 -57.5l-352 -584q-14 -24 -31 -35t-43 -11z" />
    <glyph glyph-name="W" unicode="W" horiz-adv-x="1113" 
d="M284 -8q-50 0 -62 60l-114 584q-7 35 9.5 56t49.5 21q51 0 61 -59l85 -469l244 480q25 48 70 48q44 0 56 -61l86 -472l245 486q12 24 27 35.5t40 11.5q37 0 50 -24t-5 -59l-302 -590q-13 -25 -30.5 -36.5t-44.5 -11.5q-50 0 -62 60l-88 456l-240 -468q-13 -25 -30 -36.5
t-45 -11.5z" />
    <glyph glyph-name="Wacute" unicode="&#x1e82;" horiz-adv-x="1113" 
d="M284 -8q-50 0 -62 60l-114 584q-7 35 9.5 56t49.5 21q51 0 61 -59l85 -469l244 480q25 48 70 48q44 0 56 -61l86 -472l245 486q12 24 27 35.5t40 11.5q37 0 50 -24t-5 -59l-302 -590q-13 -25 -30.5 -36.5t-44.5 -11.5q-50 0 -62 60l-88 456l-240 -468q-13 -25 -30 -36.5
t-45 -11.5zM688 771q-18 -18 -37 -13.5t-27 21.5t6 36l85 113q17 22 37.5 24t36 -10t18.5 -30.5t-15 -36.5z" />
    <glyph glyph-name="Wcircumflex" unicode="&#x174;" horiz-adv-x="1113" 
d="M284 -8q-50 0 -62 60l-114 584q-7 35 9.5 56t49.5 21q51 0 61 -59l85 -469l244 480q25 48 70 48q44 0 56 -61l86 -472l245 486q12 24 27 35.5t40 11.5q37 0 50 -24t-5 -59l-302 -590q-13 -25 -30.5 -36.5t-44.5 -11.5q-50 0 -62 60l-88 456l-240 -468q-13 -25 -30 -36.5
t-45 -11.5zM545 770q-16 -17 -35.5 -14t-28 18.5t6.5 33.5l83 103q34 41 80 41q24 0 41 -12t30 -35l59 -95q11 -17 6.5 -30.5t-17.5 -20t-29 -3.5t-28 19l-71 94z" />
    <glyph glyph-name="Wdieresis" unicode="&#x1e84;" horiz-adv-x="1113" 
d="M284 -8q-50 0 -62 60l-114 584q-7 35 9.5 56t49.5 21q51 0 61 -59l85 -469l244 480q25 48 70 48q44 0 56 -61l86 -472l245 486q12 24 27 35.5t40 11.5q37 0 50 -24t-5 -59l-302 -590q-13 -25 -30.5 -36.5t-44.5 -11.5q-50 0 -62 60l-88 456l-240 -468q-13 -25 -30 -36.5
t-45 -11.5zM735 786q-54 0 -54 48q0 34 19 54.5t53 20.5q54 0 54 -48q0 -34 -18.5 -54.5t-53.5 -20.5zM546 786q-53 0 -53 48q0 34 19 54.5t53 20.5q53 0 53 -48q0 -34 -18.5 -54.5t-53.5 -20.5z" />
    <glyph glyph-name="Wgrave" unicode="&#x1e80;" horiz-adv-x="1113" 
d="M284 -8q-50 0 -62 60l-114 584q-7 35 9.5 56t49.5 21q51 0 61 -59l85 -469l244 480q25 48 70 48q44 0 56 -61l86 -472l245 486q12 24 27 35.5t40 11.5q37 0 50 -24t-5 -59l-302 -590q-13 -25 -30.5 -36.5t-44.5 -11.5q-50 0 -62 60l-88 456l-240 -468q-13 -25 -30 -36.5
t-45 -11.5zM586 773l-83 100q-17 21 -12.5 40t22 30.5t38 8t34.5 -27.5l65 -106q9 -16 5 -30t-16 -22.5t-26.5 -7.5t-26.5 15z" />
    <glyph glyph-name="X" unicode="X" horiz-adv-x="672" 
d="M67 -8q-25 0 -39.5 14.5t-14.5 36t18 42.5l248 279l-153 259q-20 35 -4.5 62.5t53.5 27.5q23 0 36 -10.5t29 -37.5l125 -220l194 228q19 22 34.5 31t37.5 9q25 0 40 -14t16 -35t-17 -42l-239 -269l160 -270q14 -22 10.5 -43t-19.5 -34.5t-41 -13.5q-23 0 -36.5 10.5
t-29.5 37.5l-133 230l-203 -238q-19 -22 -34.5 -31t-37.5 -9z" />
    <glyph glyph-name="Y" unicode="Y" horiz-adv-x="618" 
d="M269 -8q-31 0 -44 20t-8 55l41 256l-165 299q-19 35 -4.5 63t53.5 28q23 0 37.5 -10.5t29.5 -37.5l123 -228l204 236q20 23 35 31.5t37 8.5q25 0 39.5 -14t14.5 -35t-18 -42l-258 -297l-43 -269q-10 -64 -74 -64z" />
    <glyph glyph-name="Yacute" unicode="&#xdd;" horiz-adv-x="618" 
d="M269 -8q-31 0 -44 20t-8 55l41 256l-165 299q-19 35 -4.5 63t53.5 28q23 0 37.5 -10.5t29.5 -37.5l123 -228l204 236q20 23 35 31.5t37 8.5q25 0 39.5 -14t14.5 -35t-18 -42l-258 -297l-43 -269q-10 -64 -74 -64zM432 771q-18 -18 -37 -13.5t-27 21.5t6 36l85 113
q17 22 37.5 24t36 -10t18.5 -30.5t-15 -36.5z" />
    <glyph glyph-name="Ycircumflex" unicode="&#x176;" horiz-adv-x="618" 
d="M269 -8q-31 0 -44 20t-8 55l41 256l-165 299q-19 35 -4.5 63t53.5 28q23 0 37.5 -10.5t29.5 -37.5l123 -228l204 236q20 23 35 31.5t37 8.5q25 0 39.5 -14t14.5 -35t-18 -42l-258 -297l-43 -269q-10 -64 -74 -64zM289 770q-16 -17 -35.5 -14t-28 18.5t6.5 33.5l83 103
q34 41 80 41q24 0 41 -12t30 -35l59 -95q11 -17 6.5 -30.5t-17.5 -20t-29 -3.5t-28 19l-71 94z" />
    <glyph glyph-name="Ydieresis" unicode="&#x178;" horiz-adv-x="618" 
d="M269 -8q-31 0 -44 20t-8 55l41 256l-165 299q-19 35 -4.5 63t53.5 28q23 0 37.5 -10.5t29.5 -37.5l123 -228l204 236q20 23 35 31.5t37 8.5q25 0 39.5 -14t14.5 -35t-18 -42l-258 -297l-43 -269q-10 -64 -74 -64zM479 786q-54 0 -54 48q0 34 19 54.5t53 20.5q54 0 54 -48
q0 -34 -18.5 -54.5t-53.5 -20.5zM290 786q-53 0 -53 48q0 34 19 54.5t53 20.5q53 0 53 -48q0 -34 -18.5 -54.5t-53.5 -20.5z" />
    <glyph glyph-name="uni1E8E" unicode="&#x1e8e;" horiz-adv-x="618" 
d="M269 -8q-31 0 -44 20t-8 55l41 256l-165 299q-19 35 -4.5 63t53.5 28q23 0 37.5 -10.5t29.5 -37.5l123 -228l204 236q20 23 35 31.5t37 8.5q25 0 39.5 -14t14.5 -35t-18 -42l-258 -297l-43 -269q-10 -64 -74 -64zM385 789q-57 0 -57 50q0 35 20.5 55t56.5 20q57 0 57 -49
q0 -34 -20.5 -55t-56.5 -21z" />
    <glyph glyph-name="uni1EF4" unicode="&#x1ef4;" horiz-adv-x="618" 
d="M269 -8q-31 0 -44 20t-8 55l41 256l-165 299q-19 35 -4.5 63t53.5 28q23 0 37.5 -10.5t29.5 -37.5l123 -228l204 236q20 23 35 31.5t37 8.5q25 0 39.5 -14t14.5 -35t-18 -42l-258 -297l-43 -269q-10 -64 -74 -64zM236 -209q-56 0 -56 50q0 35 20.5 55t55.5 20
q57 0 57 -49q0 -34 -20.5 -55t-56.5 -21z" />
    <glyph glyph-name="Ygrave" unicode="&#x1ef2;" horiz-adv-x="618" 
d="M269 -8q-31 0 -44 20t-8 55l41 256l-165 299q-19 35 -4.5 63t53.5 28q23 0 37.5 -10.5t29.5 -37.5l123 -228l204 236q20 23 35 31.5t37 8.5q25 0 39.5 -14t14.5 -35t-18 -42l-258 -297l-43 -269q-10 -64 -74 -64zM330 773l-83 100q-17 21 -12.5 40t22 30.5t38 8
t34.5 -27.5l65 -106q9 -16 5 -30t-16 -22.5t-26.5 -7.5t-26.5 15z" />
    <glyph glyph-name="uni01B3" unicode="&#x1b3;" horiz-adv-x="619" 
d="M271 -8q-33 0 -46.5 19t-8.5 53l42 259l-165 299q-19 35 -3.5 63t53.5 28q23 0 37 -10t29 -38l123 -228l164 188q44 51 84.5 70.5t93.5 19.5q38 0 58 -10t20 -38q0 -19 -9 -34t-25 -14q-7 1 -14.5 1.5t-14.5 0.5q-21 0 -43.5 -12t-45.5 -38l-214 -246l-43 -269
q-11 -64 -72 -64z" />
    <glyph glyph-name="uni1EF6" unicode="&#x1ef6;" horiz-adv-x="618" 
d="M269 -8q-31 0 -44 20t-8 55l41 256l-165 299q-19 35 -4.5 63t53.5 28q23 0 37.5 -10.5t29.5 -37.5l123 -228l204 236q20 23 35 31.5t37 8.5q25 0 39.5 -14t14.5 -35t-18 -42l-258 -297l-43 -269q-10 -64 -74 -64zM379 757q-37 0 -34 26q3 24 19 37t30.5 23t14.5 24
q0 18 -38 18q-8 0 -18 -1t-20 -4q-16 -5 -24.5 -1t-13.5 17q-4 14 2 24t19 14q21 7 43.5 9.5t45.5 2.5q47 0 73 -16t26 -44q0 -24 -12 -37.5t-28 -23t-28.5 -20t-14.5 -28.5q-1 -10 -12.5 -15t-29.5 -5z" />
    <glyph glyph-name="uni0232" unicode="&#x232;" horiz-adv-x="618" 
d="M269 -8q-31 0 -44 20t-8 55l41 256l-165 299q-19 35 -4.5 63t53.5 28q23 0 37.5 -10.5t29.5 -37.5l123 -228l204 236q20 23 35 31.5t37 8.5q25 0 39.5 -14t14.5 -35t-18 -42l-258 -297l-43 -269q-10 -64 -74 -64zM253 806q-40 0 -40 31q0 20 12 31.5t32 11.5h277
q40 0 40 -31q0 -19 -12 -31t-32 -12h-277z" />
    <glyph glyph-name="uni1EF8" unicode="&#x1ef8;" horiz-adv-x="618" 
d="M269 -8q-31 0 -44 20t-8 55l41 256l-165 299q-19 35 -4.5 63t53.5 28q23 0 37.5 -10.5t29.5 -37.5l123 -228l204 236q20 23 35 31.5t37 8.5q25 0 39.5 -14t14.5 -35t-18 -42l-258 -297l-43 -269q-10 -64 -74 -64zM188 770q-15 1 -22 11.5t-2 29.5q17 59 52 86t82 27
q28 0 52 -10t45.5 -23t41.5 -23t40 -10q22 0 40 11.5t26 34.5q5 14 13.5 20.5t24.5 5.5q15 -1 22 -11.5t2 -29.5q-16 -58 -52 -85.5t-83 -27.5q-28 0 -52 10t-45 23t-41 23t-40 10q-22 0 -39.5 -11.5t-26.5 -34.5q-5 -14 -13.5 -20.5t-24.5 -5.5z" />
    <glyph glyph-name="Z" unicode="Z" horiz-adv-x="605" 
d="M69 0q-27 0 -41.5 18t-10.5 46t31 59l419 475h-308q-56 0 -56 44q0 31 17.5 47t46.5 16h409q34 0 49 -18t10 -45.5t-31 -57.5l-421 -477h323q57 0 57 -43q0 -31 -17.5 -47.5t-46.5 -16.5h-430z" />
    <glyph glyph-name="Zacute" unicode="&#x179;" horiz-adv-x="605" 
d="M69 0q-27 0 -41.5 18t-10.5 46t31 59l419 475h-308q-56 0 -56 44q0 31 17.5 47t46.5 16h409q34 0 49 -18t10 -45.5t-31 -57.5l-421 -477h323q57 0 57 -43q0 -31 -17.5 -47.5t-46.5 -16.5h-430zM436 771q-18 -18 -37 -13.5t-27 21.5t6 36l85 113q17 22 37.5 24t36 -10
t18.5 -30.5t-15 -36.5z" />
    <glyph glyph-name="Zcaron" unicode="&#x17d;" horiz-adv-x="605" 
d="M69 0q-27 0 -41.5 18t-10.5 46t31 59l419 475h-308q-56 0 -56 44q0 31 17.5 47t46.5 16h409q34 0 49 -18t10 -45.5t-31 -57.5l-421 -477h323q57 0 57 -43q0 -31 -17.5 -47.5t-46.5 -16.5h-430zM382 753q-24 0 -40.5 12t-30.5 34l-60 96q-10 17 -6 30t16.5 19.5t28 3
t27.5 -19.5l72 -93l96 100q12 13 27 14t27 -6.5t15 -19.5t-8 -26l-83 -102q-33 -42 -81 -42z" />
    <glyph glyph-name="Zdotaccent" unicode="&#x17b;" horiz-adv-x="605" 
d="M69 0q-27 0 -41.5 18t-10.5 46t31 59l419 475h-308q-56 0 -56 44q0 31 17.5 47t46.5 16h409q34 0 49 -18t10 -45.5t-31 -57.5l-421 -477h323q57 0 57 -43q0 -31 -17.5 -47.5t-46.5 -16.5h-430zM389 789q-57 0 -57 50q0 35 20.5 55t56.5 20q57 0 57 -49q0 -34 -20.5 -55
t-56.5 -21z" />
    <glyph glyph-name="uni1E92" unicode="&#x1e92;" horiz-adv-x="605" 
d="M69 0q-27 0 -41.5 18t-10.5 46t31 59l419 475h-308q-56 0 -56 44q0 31 17.5 47t46.5 16h409q34 0 49 -18t10 -45.5t-31 -57.5l-421 -477h323q57 0 57 -43q0 -31 -17.5 -47.5t-46.5 -16.5h-430zM252 -209q-56 0 -56 50q0 35 20.5 55t55.5 20q57 0 57 -49q0 -34 -20.5 -55
t-56.5 -21z" />
    <glyph glyph-name="Iacute_J.loclNLD" horiz-adv-x="636" 
d="M104 -8q-33 0 -47 20t-8 56l92 581q10 64 73 64q65 0 53 -76l-92 -580q-11 -65 -71 -65zM275 771q-18 -18 -37 -13.5t-27 21.5t6 36l85 113q17 22 37.5 24t36 -10t18.5 -30.5t-15 -36.5zM296 -7q-28 -1 -44 12.5t-15 38.5q2 51 50 54l31 2q47 3 73 29t34 78l71 447
q9 59 69 59q32 0 47 -18.5t10 -51.5l-71 -447q-15 -94 -65.5 -143.5t-159.5 -57.5zM629 771q-18 -18 -37 -13.5t-27 21.5t6 36l85 113q17 22 37.5 24t36 -10t18.5 -30.5t-15 -36.5z" />
    <glyph glyph-name="a" unicode="a" horiz-adv-x="547" 
d="M193 -10q-45 0 -82 20.5t-59.5 54.5t-22.5 76q0 77 66.5 113t208.5 36h69l3 18q8 47 -14.5 72t-78.5 25q-33 0 -64 -6.5t-64 -21.5q-23 -10 -40.5 -3t-25 23.5t0.5 35t36 30.5q42 19 87.5 27.5t85.5 8.5q79 0 124 -29t61 -79t6 -114l-35 -223q-9 -62 -68 -62
q-27 0 -40.5 17.5t-8.5 51.5l2 10q-25 -42 -64.5 -61.5t-82.5 -19.5zM232 76q47 0 82 30.5t43 82.5l5 29h-52q-88 0 -123.5 -14.5t-35.5 -54.5q0 -35 23.5 -54t57.5 -19z" />
    <glyph glyph-name="aacute" unicode="&#xe1;" horiz-adv-x="547" 
d="M193 -10q-45 0 -82 20.5t-59.5 54.5t-22.5 76q0 77 66.5 113t208.5 36h69l3 18q8 47 -14.5 72t-78.5 25q-33 0 -64 -6.5t-64 -21.5q-23 -10 -40.5 -3t-25 23.5t0.5 35t36 30.5q42 19 87.5 27.5t85.5 8.5q79 0 124 -29t61 -79t6 -114l-35 -223q-9 -62 -68 -62
q-27 0 -40.5 17.5t-8.5 51.5l2 10q-25 -42 -64.5 -61.5t-82.5 -19.5zM232 76q47 0 82 30.5t43 82.5l5 29h-52q-88 0 -123.5 -14.5t-35.5 -54.5q0 -35 23.5 -54t57.5 -19zM367 559q-16 -19 -35 -16t-27.5 20t5.5 38l96 147q15 23 35.5 25.5t36.5 -8.5t20 -30t-13 -39z" />
    <glyph glyph-name="abreve" unicode="&#x103;" horiz-adv-x="547" 
d="M193 -10q-45 0 -82 20.5t-59.5 54.5t-22.5 76q0 77 66.5 113t208.5 36h69l3 18q8 47 -14.5 72t-78.5 25q-33 0 -64 -6.5t-64 -21.5q-23 -10 -40.5 -3t-25 23.5t0.5 35t36 30.5q42 19 87.5 27.5t85.5 8.5q79 0 124 -29t61 -79t6 -114l-35 -223q-9 -62 -68 -62
q-27 0 -40.5 17.5t-8.5 51.5l2 10q-25 -42 -64.5 -61.5t-82.5 -19.5zM232 76q47 0 82 30.5t43 82.5l5 29h-52q-88 0 -123.5 -14.5t-35.5 -54.5q0 -35 23.5 -54t57.5 -19zM330 551q-66 0 -106.5 43t-45.5 116q-2 38 32 42q17 2 28.5 -5.5t12.5 -26.5q3 -46 25 -69.5t58 -23.5
q35 0 62 24.5t37 69.5q8 34 42 31q17 -1 25 -14t3 -34q-18 -72 -64 -112.5t-109 -40.5z" />
    <glyph glyph-name="uni1EAF" unicode="&#x1eaf;" horiz-adv-x="547" 
d="M193 -10q-45 0 -82 20.5t-59.5 54.5t-22.5 76q0 77 66.5 113t208.5 36h69l3 18q8 47 -14.5 72t-78.5 25q-33 0 -64 -6.5t-64 -21.5q-23 -10 -40.5 -3t-25 23.5t0.5 35t36 30.5q42 19 87.5 27.5t85.5 8.5q79 0 124 -29t61 -79t6 -114l-35 -223q-9 -62 -68 -62
q-27 0 -40.5 17.5t-8.5 51.5l2 10q-25 -42 -64.5 -61.5t-82.5 -19.5zM232 76q47 0 82 30.5t43 82.5l5 29h-52q-88 0 -123.5 -14.5t-35.5 -54.5q0 -35 23.5 -54t57.5 -19zM369 679q-16 -17 -34 -15t-25.5 17t5.5 36l55 87q14 21 33 23.5t34.5 -7.5t19.5 -27.5t-14 -35.5z
M328 551q-68 0 -109 34.5t-49 87.5q-6 38 26 41q17 2 26 -7t12 -21q8 -31 33 -48t64 -17q40 0 69.5 18t42.5 53q4 11 12.5 17.5t24.5 4.5q14 -1 21 -10.5t2 -28.5q-14 -52 -59 -88t-116 -36z" />
    <glyph glyph-name="uni1EB7" unicode="&#x1eb7;" horiz-adv-x="547" 
d="M193 -10q-45 0 -82 20.5t-59.5 54.5t-22.5 76q0 77 66.5 113t208.5 36h69l3 18q8 47 -14.5 72t-78.5 25q-33 0 -64 -6.5t-64 -21.5q-23 -10 -40.5 -3t-25 23.5t0.5 35t36 30.5q42 19 87.5 27.5t85.5 8.5q79 0 124 -29t61 -79t6 -114l-35 -223q-9 -62 -68 -62
q-27 0 -40.5 17.5t-8.5 51.5l2 10q-25 -42 -64.5 -61.5t-82.5 -19.5zM232 76q47 0 82 30.5t43 82.5l5 29h-52q-88 0 -123.5 -14.5t-35.5 -54.5q0 -35 23.5 -54t57.5 -19zM210 -210q-56 0 -56 50q0 35 20.5 55t55.5 20q57 0 57 -49q0 -34 -20.5 -55t-56.5 -21zM330 551
q-66 0 -106.5 43t-45.5 116q-2 38 32 42q17 2 28.5 -5.5t12.5 -26.5q3 -46 25 -69.5t58 -23.5q35 0 62 24.5t37 69.5q8 34 42 31q17 -1 25 -14t3 -34q-18 -72 -64 -112.5t-109 -40.5z" />
    <glyph glyph-name="uni1EB1" unicode="&#x1eb1;" horiz-adv-x="547" 
d="M193 -10q-45 0 -82 20.5t-59.5 54.5t-22.5 76q0 77 66.5 113t208.5 36h69l3 18q8 47 -14.5 72t-78.5 25q-33 0 -64 -6.5t-64 -21.5q-23 -10 -40.5 -3t-25 23.5t0.5 35t36 30.5q42 19 87.5 27.5t85.5 8.5q79 0 124 -29t61 -79t6 -114l-35 -223q-9 -62 -68 -62
q-27 0 -40.5 17.5t-8.5 51.5l2 10q-25 -42 -64.5 -61.5t-82.5 -19.5zM232 76q47 0 82 30.5t43 82.5l5 29h-52q-88 0 -123.5 -14.5t-35.5 -54.5q0 -35 23.5 -54t57.5 -19zM302 680l-60 79q-15 20 -8 37.5t25.5 26.5t38.5 4.5t30 -28.5l38 -87q10 -22 -1.5 -35.5t-30.5 -13.5
t-32 17zM328 551q-68 0 -109 34.5t-49 87.5q-6 38 26 41q17 2 26 -7t12 -21q8 -31 33 -48t64 -17q40 0 69.5 18t42.5 53q4 11 12.5 17.5t24.5 4.5q14 -1 21 -10.5t2 -28.5q-14 -52 -59 -88t-116 -36z" />
    <glyph glyph-name="uni1EB3" unicode="&#x1eb3;" horiz-adv-x="547" 
d="M193 -10q-45 0 -82 20.5t-59.5 54.5t-22.5 76q0 77 66.5 113t208.5 36h69l3 18q8 47 -14.5 72t-78.5 25q-33 0 -64 -6.5t-64 -21.5q-23 -10 -40.5 -3t-25 23.5t0.5 35t36 30.5q42 19 87.5 27.5t85.5 8.5q79 0 124 -29t61 -79t6 -114l-35 -223q-9 -62 -68 -62
q-27 0 -40.5 17.5t-8.5 51.5l2 10q-25 -42 -64.5 -61.5t-82.5 -19.5zM232 76q47 0 82 30.5t43 82.5l5 29h-52q-88 0 -123.5 -14.5t-35.5 -54.5q0 -35 23.5 -54t57.5 -19zM362 673q-17 -8 -33 -5t-21 12.5t10 19.5q20 14 30.5 24.5t10.5 23.5q0 21 -32 21q-18 0 -38 -5
q-30 -8 -35 15q-5 24 21 33q35 11 76 11q92 0 92 -57q0 -32 -26 -55.5t-55 -37.5zM328 551q-68 0 -109 34.5t-49 87.5q-6 38 26 41q17 2 26 -7t12 -21q8 -31 33 -48t64 -17q40 0 69.5 18t42.5 53q4 11 12.5 17.5t24.5 4.5q14 -1 21 -10.5t2 -28.5q-14 -52 -59 -88t-116 -36z
" />
    <glyph glyph-name="uni1EB5" unicode="&#x1eb5;" horiz-adv-x="547" 
d="M193 -10q-45 0 -82 20.5t-59.5 54.5t-22.5 76q0 77 66.5 113t208.5 36h69l3 18q8 47 -14.5 72t-78.5 25q-33 0 -64 -6.5t-64 -21.5q-23 -10 -40.5 -3t-25 23.5t0.5 35t36 30.5q42 19 87.5 27.5t85.5 8.5q79 0 124 -29t61 -79t6 -114l-35 -223q-9 -62 -68 -62
q-27 0 -40.5 17.5t-8.5 51.5l2 10q-25 -42 -64.5 -61.5t-82.5 -19.5zM232 76q47 0 82 30.5t43 82.5l5 29h-52q-88 0 -123.5 -14.5t-35.5 -54.5q0 -35 23.5 -54t57.5 -19zM197 708q-14 1 -21.5 11.5t-0.5 27.5q28 75 103 75q26 0 49.5 -11t44 -22t38.5 -11q16 0 28.5 6.5
t18.5 19.5q10 23 36 22q14 -1 21.5 -11.5t0.5 -27.5q-29 -75 -103 -75q-26 0 -49.5 11t-44 22t-38.5 11q-16 0 -28.5 -6t-18.5 -20q-10 -23 -36 -22zM326 551q-53 0 -94.5 21.5t-60.5 61.5q-7 16 -1.5 28t19.5 16q29 7 45 -17q13 -20 38 -30t57 -10q33 0 58.5 9.5t44.5 31.5
q11 12 20.5 16.5t24.5 -0.5q14 -4 18.5 -15t-3.5 -26q-22 -41 -66.5 -63.5t-99.5 -22.5z" />
    <glyph glyph-name="uni01CE" unicode="&#x1ce;" horiz-adv-x="547" 
d="M193 -10q-45 0 -82 20.5t-59.5 54.5t-22.5 76q0 77 66.5 113t208.5 36h69l3 18q8 47 -14.5 72t-78.5 25q-33 0 -64 -6.5t-64 -21.5q-23 -10 -40.5 -3t-25 23.5t0.5 35t36 30.5q42 19 87.5 27.5t85.5 8.5q79 0 124 -29t61 -79t6 -114l-35 -223q-9 -62 -68 -62
q-27 0 -40.5 17.5t-8.5 51.5l2 10q-25 -42 -64.5 -61.5t-82.5 -19.5zM232 76q47 0 82 30.5t43 82.5l5 29h-52q-88 0 -123.5 -14.5t-35.5 -54.5q0 -35 23.5 -54t57.5 -19zM319 539q-48 0 -67 46l-57 132q-7 17 -1.5 30t18 19t26.5 2.5t22 -18.5l66 -125l97 127
q15 19 33.5 17.5t28 -16.5t-4.5 -37l-84 -129q-31 -48 -77 -48z" />
    <glyph glyph-name="acircumflex" unicode="&#xe2;" horiz-adv-x="547" 
d="M193 -10q-45 0 -82 20.5t-59.5 54.5t-22.5 76q0 77 66.5 113t208.5 36h69l3 18q8 47 -14.5 72t-78.5 25q-33 0 -64 -6.5t-64 -21.5q-23 -10 -40.5 -3t-25 23.5t0.5 35t36 30.5q42 19 87.5 27.5t85.5 8.5q79 0 124 -29t61 -79t6 -114l-35 -223q-9 -62 -68 -62
q-27 0 -40.5 17.5t-8.5 51.5l2 10q-25 -42 -64.5 -61.5t-82.5 -19.5zM232 76q47 0 82 30.5t43 82.5l5 29h-52q-88 0 -123.5 -14.5t-35.5 -54.5q0 -35 23.5 -54t57.5 -19zM463 597q8 -17 2 -30t-18.5 -19.5t-26 -3.5t-21.5 18l-67 124l-95 -126q-13 -18 -32 -16.5t-29 16.5
t4 37l84 130q14 23 32.5 35t41.5 12q46 0 67 -46z" />
    <glyph glyph-name="uni1EA5" unicode="&#x1ea5;" horiz-adv-x="547" 
d="M193 -10q-45 0 -82 20.5t-59.5 54.5t-22.5 76q0 77 66.5 113t208.5 36h69l3 18q8 47 -14.5 72t-78.5 25q-33 0 -64 -6.5t-64 -21.5q-23 -10 -40.5 -3t-25 23.5t0.5 35t36 30.5q42 19 87.5 27.5t85.5 8.5q79 0 124 -29t61 -79t6 -114l-35 -223q-9 -62 -68 -62
q-27 0 -40.5 17.5t-8.5 51.5l2 10q-25 -42 -64.5 -61.5t-82.5 -19.5zM232 76q47 0 82 30.5t43 82.5l5 29h-52q-88 0 -123.5 -14.5t-35.5 -54.5q0 -35 23.5 -54t57.5 -19zM498 654q-13 -15 -29 -13t-23.5 15t3.5 31l74 115q12 18 28.5 20t30 -7.5t17 -25t-11.5 -32.5z
M229 555q-16 -16 -32.5 -11.5t-23.5 19t4 28.5l72 93q15 19 35 29.5t47 10.5q33 0 49 -14t26 -32l51 -87q11 -18 1 -32t-28.5 -16t-32.5 15l-74 91z" />
    <glyph glyph-name="uni1EAD" unicode="&#x1ead;" horiz-adv-x="547" 
d="M193 -10q-45 0 -82 20.5t-59.5 54.5t-22.5 76q0 77 66.5 113t208.5 36h69l3 18q8 47 -14.5 72t-78.5 25q-33 0 -64 -6.5t-64 -21.5q-23 -10 -40.5 -3t-25 23.5t0.5 35t36 30.5q42 19 87.5 27.5t85.5 8.5q79 0 124 -29t61 -79t6 -114l-35 -223q-9 -62 -68 -62
q-27 0 -40.5 17.5t-8.5 51.5l2 10q-25 -42 -64.5 -61.5t-82.5 -19.5zM232 76q47 0 82 30.5t43 82.5l5 29h-52q-88 0 -123.5 -14.5t-35.5 -54.5q0 -35 23.5 -54t57.5 -19zM210 -210q-56 0 -56 50q0 35 20.5 55t55.5 20q57 0 57 -49q0 -34 -20.5 -55t-56.5 -21zM463 597
q8 -17 2 -30t-18.5 -19.5t-26 -3.5t-21.5 18l-67 124l-95 -126q-13 -18 -32 -16.5t-29 16.5t4 37l84 130q14 23 32.5 35t41.5 12q46 0 67 -46z" />
    <glyph glyph-name="uni1EA7" unicode="&#x1ea7;" horiz-adv-x="547" 
d="M193 -10q-45 0 -82 20.5t-59.5 54.5t-22.5 76q0 77 66.5 113t208.5 36h69l3 18q8 47 -14.5 72t-78.5 25q-33 0 -64 -6.5t-64 -21.5q-23 -10 -40.5 -3t-25 23.5t0.5 35t36 30.5q42 19 87.5 27.5t85.5 8.5q79 0 124 -29t61 -79t6 -114l-35 -223q-9 -62 -68 -62
q-27 0 -40.5 17.5t-8.5 51.5l2 10q-25 -42 -64.5 -61.5t-82.5 -19.5zM232 76q47 0 82 30.5t43 82.5l5 29h-52q-88 0 -123.5 -14.5t-35.5 -54.5q0 -35 23.5 -54t57.5 -19zM476 656l-73 105q-12 17 -5.5 32.5t22 23.5t32.5 5t26 -23l54 -112q10 -19 0 -32t-27 -14t-29 15z
M231 555q-16 -16 -32.5 -11.5t-23.5 19t4 28.5l72 93q15 19 35 29.5t47 10.5q33 0 49 -14t26 -32l51 -87q11 -18 1 -32t-28.5 -16t-32.5 15l-74 91z" />
    <glyph glyph-name="uni1EA9" unicode="&#x1ea9;" horiz-adv-x="547" 
d="M193 -10q-45 0 -82 20.5t-59.5 54.5t-22.5 76q0 77 66.5 113t208.5 36h69l3 18q8 47 -14.5 72t-78.5 25q-33 0 -64 -6.5t-64 -21.5q-23 -10 -40.5 -3t-25 23.5t0.5 35t36 30.5q42 19 87.5 27.5t85.5 8.5q79 0 124 -29t61 -79t6 -114l-35 -223q-9 -62 -68 -62
q-27 0 -40.5 17.5t-8.5 51.5l2 10q-25 -42 -64.5 -61.5t-82.5 -19.5zM232 76q47 0 82 30.5t43 82.5l5 29h-52q-88 0 -123.5 -14.5t-35.5 -54.5q0 -35 23.5 -54t57.5 -19zM494 658q-17 -8 -32.5 -4.5t-19.5 14t11 20.5q20 14 31.5 25.5t11.5 24.5q0 11 -9 16.5t-23 5.5
q-9 0 -19 -1t-20 -3q-13 -2 -22 0.5t-12 14.5q-6 24 20 33q17 5 36 7.5t40 2.5q47 0 69.5 -15.5t22.5 -41.5q0 -21 -13 -40t-32.5 -34t-39.5 -25zM231 555q-16 -16 -32.5 -11.5t-23.5 19t4 28.5l72 93q15 19 35 29.5t47 10.5q33 0 49 -14t26 -32l51 -87q11 -18 1 -32
t-28.5 -16t-32.5 15l-74 91z" />
    <glyph glyph-name="uni1EAB" unicode="&#x1eab;" horiz-adv-x="547" 
d="M193 -10q-45 0 -82 20.5t-59.5 54.5t-22.5 76q0 77 66.5 113t208.5 36h69l3 18q8 47 -14.5 72t-78.5 25q-33 0 -64 -6.5t-64 -21.5q-23 -10 -40.5 -3t-25 23.5t0.5 35t36 30.5q42 19 87.5 27.5t85.5 8.5q79 0 124 -29t61 -79t6 -114l-35 -223q-9 -62 -68 -62
q-27 0 -40.5 17.5t-8.5 51.5l2 10q-25 -42 -64.5 -61.5t-82.5 -19.5zM232 76q47 0 82 30.5t43 82.5l5 29h-52q-88 0 -123.5 -14.5t-35.5 -54.5q0 -35 23.5 -54t57.5 -19zM193 708q-14 1 -21 11.5t-1 27.5q26 75 103 75q26 0 48 -11t41.5 -22t37.5 -11q16 0 29 6t19 21
q8 22 35 21q14 -1 21 -11.5t1 -27.5q-26 -75 -103 -75q-26 0 -48.5 11t-41.5 22t-37 11q-16 0 -29 -6t-19 -21q-8 -22 -35 -21zM225 552q-18 -13 -32.5 -9t-19 17.5t8.5 27.5l69 75q14 15 32 27.5t49 12.5q32 0 45.5 -14.5t26.5 -31.5l54 -72q12 -15 4 -27.5t-25 -14.5
t-34 12l-80 71z" />
    <glyph glyph-name="uni0201" unicode="&#x201;" horiz-adv-x="547" 
d="M193 -10q-45 0 -82 20.5t-59.5 54.5t-22.5 76q0 77 66.5 113t208.5 36h69l3 18q8 47 -14.5 72t-78.5 25q-33 0 -64 -6.5t-64 -21.5q-23 -10 -40.5 -3t-25 23.5t0.5 35t36 30.5q42 19 87.5 27.5t85.5 8.5q79 0 124 -29t61 -79t6 -114l-35 -223q-9 -62 -68 -62
q-27 0 -40.5 17.5t-8.5 51.5l2 10q-25 -42 -64.5 -61.5t-82.5 -19.5zM232 76q47 0 82 30.5t43 82.5l5 29h-52q-88 0 -123.5 -14.5t-35.5 -54.5q0 -35 23.5 -54t57.5 -19zM359 569l-50 144q-9 25 2.5 41t31 20t37.5 -5.5t22 -36.5l24 -149q4 -22 -10.5 -32t-32 -6t-24.5 24z
M211 569l-50 144q-9 25 2.5 41t31 20t37.5 -5.5t22 -36.5l24 -149q4 -22 -10.5 -32t-32 -6t-24.5 24z" />
    <glyph glyph-name="adieresis" unicode="&#xe4;" horiz-adv-x="547" 
d="M193 -10q-45 0 -82 20.5t-59.5 54.5t-22.5 76q0 77 66.5 113t208.5 36h69l3 18q8 47 -14.5 72t-78.5 25q-33 0 -64 -6.5t-64 -21.5q-23 -10 -40.5 -3t-25 23.5t0.5 35t36 30.5q42 19 87.5 27.5t85.5 8.5q79 0 124 -29t61 -79t6 -114l-35 -223q-9 -62 -68 -62
q-27 0 -40.5 17.5t-8.5 51.5l2 10q-25 -42 -64.5 -61.5t-82.5 -19.5zM232 76q47 0 82 30.5t43 82.5l5 29h-52q-88 0 -123.5 -14.5t-35.5 -54.5q0 -35 23.5 -54t57.5 -19zM423 593q-53 0 -53 48q0 34 19 54.5t53 20.5q53 0 53 -48q0 -34 -18.5 -54.5t-53.5 -20.5zM234 593
q-54 0 -54 48q0 34 19 54.5t53 20.5q54 0 54 -48q0 -34 -18.5 -54.5t-53.5 -20.5z" />
    <glyph glyph-name="uni0227" unicode="&#x227;" horiz-adv-x="547" 
d="M193 -10q-45 0 -82 20.5t-59.5 54.5t-22.5 76q0 77 66.5 113t208.5 36h69l3 18q8 47 -14.5 72t-78.5 25q-33 0 -64 -6.5t-64 -21.5q-23 -10 -40.5 -3t-25 23.5t0.5 35t36 30.5q42 19 87.5 27.5t85.5 8.5q79 0 124 -29t61 -79t6 -114l-35 -223q-9 -62 -68 -62
q-27 0 -40.5 17.5t-8.5 51.5l2 10q-25 -42 -64.5 -61.5t-82.5 -19.5zM232 76q47 0 82 30.5t43 82.5l5 29h-52q-88 0 -123.5 -14.5t-35.5 -54.5q0 -35 23.5 -54t57.5 -19zM327 593q-57 0 -57 49q0 35 20.5 55.5t56.5 20.5q57 0 57 -49q0 -35 -20.5 -55.5t-56.5 -20.5z" />
    <glyph glyph-name="uni1EA1" unicode="&#x1ea1;" horiz-adv-x="547" 
d="M193 -10q-45 0 -82 20.5t-59.5 54.5t-22.5 76q0 77 66.5 113t208.5 36h69l3 18q8 47 -14.5 72t-78.5 25q-33 0 -64 -6.5t-64 -21.5q-23 -10 -40.5 -3t-25 23.5t0.5 35t36 30.5q42 19 87.5 27.5t85.5 8.5q79 0 124 -29t61 -79t6 -114l-35 -223q-9 -62 -68 -62
q-27 0 -40.5 17.5t-8.5 51.5l2 10q-25 -42 -64.5 -61.5t-82.5 -19.5zM232 76q47 0 82 30.5t43 82.5l5 29h-52q-88 0 -123.5 -14.5t-35.5 -54.5q0 -35 23.5 -54t57.5 -19zM210 -210q-56 0 -56 50q0 35 20.5 55t55.5 20q57 0 57 -49q0 -34 -20.5 -55t-56.5 -21z" />
    <glyph glyph-name="agrave" unicode="&#xe0;" horiz-adv-x="547" 
d="M193 -10q-45 0 -82 20.5t-59.5 54.5t-22.5 76q0 77 66.5 113t208.5 36h69l3 18q8 47 -14.5 72t-78.5 25q-33 0 -64 -6.5t-64 -21.5q-23 -10 -40.5 -3t-25 23.5t0.5 35t36 30.5q42 19 87.5 27.5t85.5 8.5q79 0 124 -29t61 -79t6 -114l-35 -223q-9 -62 -68 -62
q-27 0 -40.5 17.5t-8.5 51.5l2 10q-25 -42 -64.5 -61.5t-82.5 -19.5zM232 76q47 0 82 30.5t43 82.5l5 29h-52q-88 0 -123.5 -14.5t-35.5 -54.5q0 -35 23.5 -54t57.5 -19zM271 564l-91 131q-17 24 -11 43.5t24.5 28.5t40 2.5t35.5 -33.5l70 -137q9 -17 4 -30.5t-17.5 -20.5
t-27.5 -4t-27 20z" />
    <glyph glyph-name="uni1EA3" unicode="&#x1ea3;" horiz-adv-x="547" 
d="M193 -10q-45 0 -82 20.5t-59.5 54.5t-22.5 76q0 77 66.5 113t208.5 36h69l3 18q8 47 -14.5 72t-78.5 25q-33 0 -64 -6.5t-64 -21.5q-23 -10 -40.5 -3t-25 23.5t0.5 35t36 30.5q42 19 87.5 27.5t85.5 8.5q79 0 124 -29t61 -79t6 -114l-35 -223q-9 -62 -68 -62
q-27 0 -40.5 17.5t-8.5 51.5l2 10q-25 -42 -64.5 -61.5t-82.5 -19.5zM232 76q47 0 82 30.5t43 82.5l5 29h-52q-88 0 -123.5 -14.5t-35.5 -54.5q0 -35 23.5 -54t57.5 -19zM315 546q-17 0 -26.5 7.5t-7.5 20.5q3 22 14 36.5t23 25t21 20.5t9 23q0 23 -39 23q-10 0 -18.5 -1.5
t-19.5 -3.5q-12 -3 -23.5 -0.5t-14.5 14.5q-8 29 22 40q39 14 86 14q48 0 74.5 -17.5t26.5 -47.5q0 -28 -11.5 -44.5t-27.5 -28.5t-29.5 -25t-17.5 -34q-4 -22 -41 -22z" />
    <glyph glyph-name="uni0203" unicode="&#x203;" horiz-adv-x="547" 
d="M193 -10q-45 0 -82 20.5t-59.5 54.5t-22.5 76q0 77 66.5 113t208.5 36h69l3 18q8 47 -14.5 72t-78.5 25q-33 0 -64 -6.5t-64 -21.5q-23 -10 -40.5 -3t-25 23.5t0.5 35t36 30.5q42 19 87.5 27.5t85.5 8.5q79 0 124 -29t61 -79t6 -114l-35 -223q-9 -62 -68 -62
q-27 0 -40.5 17.5t-8.5 51.5l2 10q-25 -42 -64.5 -61.5t-82.5 -19.5zM232 76q47 0 82 30.5t43 82.5l5 29h-52q-88 0 -123.5 -14.5t-35.5 -54.5q0 -35 23.5 -54t57.5 -19zM185 550q-17 2 -25 14.5t-3 33.5q18 72 64 112.5t109 40.5q66 0 107.5 -42.5t44.5 -116.5
q2 -38 -32 -42q-16 -2 -27 5.5t-13 26.5q-4 46 -26 69.5t-58 23.5q-35 0 -61.5 -24.5t-37.5 -69.5q-8 -34 -42 -31z" />
    <glyph glyph-name="amacron" unicode="&#x101;" horiz-adv-x="547" 
d="M193 -10q-45 0 -82 20.5t-59.5 54.5t-22.5 76q0 77 66.5 113t208.5 36h69l3 18q8 47 -14.5 72t-78.5 25q-33 0 -64 -6.5t-64 -21.5q-23 -10 -40.5 -3t-25 23.5t0.5 35t36 30.5q42 19 87.5 27.5t85.5 8.5q79 0 124 -29t61 -79t6 -114l-35 -223q-9 -62 -68 -62
q-27 0 -40.5 17.5t-8.5 51.5l2 10q-25 -42 -64.5 -61.5t-82.5 -19.5zM232 76q47 0 82 30.5t43 82.5l5 29h-52q-88 0 -123.5 -14.5t-35.5 -54.5q0 -35 23.5 -54t57.5 -19zM211 616q-40 0 -40 31q0 20 12 31.5t33 11.5h247q40 0 40 -31q0 -19 -12 -31t-33 -12h-247z" />
    <glyph glyph-name="aogonek" unicode="&#x105;" horiz-adv-x="547" 
d="M372 -195q-54 0 -80.5 26.5t-26.5 65.5q0 78 75 125q-3 8 -3 17.5t1 21.5l2 10q-25 -42 -64.5 -61.5t-82.5 -19.5q-45 0 -82 20.5t-59.5 54.5t-22.5 76q0 77 66.5 113t208.5 36h69l3 18q8 47 -14.5 72t-78.5 25q-33 0 -64 -6.5t-64 -21.5q-23 -10 -40.5 -3t-25 23.5
t0.5 35t36 30.5q42 19 87.5 27.5t85.5 8.5q79 0 124 -29t61 -79t6 -114l-35 -223q-7 -48 -48 -60q-31 -10 -47 -29.5t-16 -45.5q0 -21 14 -34t37 -13q8 0 16 1t18 4q21 6 29.5 -7t4.5 -30.5t-21 -23.5q-31 -11 -70 -11zM232 76q47 0 82 30.5t43 82.5l5 29h-52
q-88 0 -123.5 -14.5t-35.5 -54.5q0 -35 23.5 -54t57.5 -19z" />
    <glyph glyph-name="aring" unicode="&#xe5;" horiz-adv-x="547" 
d="M193 -10q-45 0 -82 20.5t-59.5 54.5t-22.5 76q0 77 66.5 113t208.5 36h69l3 18q8 47 -14.5 72t-78.5 25q-33 0 -64 -6.5t-64 -21.5q-23 -10 -40.5 -3t-25 23.5t0.5 35t36 30.5q42 19 87.5 27.5t85.5 8.5q79 0 124 -29t61 -79t6 -114l-35 -223q-9 -62 -68 -62
q-27 0 -40.5 17.5t-8.5 51.5l2 10q-25 -42 -64.5 -61.5t-82.5 -19.5zM232 76q47 0 82 30.5t43 82.5l5 29h-52q-88 0 -123.5 -14.5t-35.5 -54.5q0 -35 23.5 -54t57.5 -19zM340 546q-53 0 -89.5 35t-36.5 87q0 35 16.5 62.5t45.5 44t64 16.5q36 0 64.5 -16.5t45 -44
t16.5 -62.5q0 -52 -36.5 -87t-89.5 -35zM340 603q28 0 46.5 18.5t18.5 46.5q0 29 -18.5 47t-46.5 18t-46.5 -18t-18.5 -47q0 -28 18.5 -46.5t46.5 -18.5z" />
    <glyph glyph-name="aringacute" unicode="&#x1fb;" horiz-adv-x="547" 
d="M193 -10q-45 0 -82 20.5t-59.5 54.5t-22.5 76q0 77 66.5 113t208.5 36h69l3 18q8 47 -14.5 72t-78.5 25q-33 0 -64 -6.5t-64 -21.5q-23 -10 -40.5 -3t-25 23.5t0.5 35t36 30.5q42 19 87.5 27.5t85.5 8.5q79 0 124 -29t61 -79t6 -114l-35 -223q-9 -62 -68 -62
q-27 0 -40.5 17.5t-8.5 51.5l2 10q-25 -42 -64.5 -61.5t-82.5 -19.5zM232 76q47 0 82 30.5t43 82.5l5 29h-52q-88 0 -123.5 -14.5t-35.5 -54.5q0 -35 23.5 -54t57.5 -19zM336 541q-51 0 -86 34t-35 83q0 50 35 84t86 34q35 0 64 -18l67 62q15 14 28.5 12.5t22 -11.5t8 -23.5
t-14.5 -25.5l-68 -58q14 -24 14 -56q0 -49 -35 -83t-86 -34zM336 593q28 0 46.5 18.5t18.5 46.5q0 29 -18.5 47t-46.5 18t-46.5 -18t-18.5 -47q0 -28 18.5 -46.5t46.5 -18.5z" />
    <glyph glyph-name="atilde" unicode="&#xe3;" horiz-adv-x="547" 
d="M193 -10q-45 0 -82 20.5t-59.5 54.5t-22.5 76q0 77 66.5 113t208.5 36h69l3 18q8 47 -14.5 72t-78.5 25q-33 0 -64 -6.5t-64 -21.5q-23 -10 -40.5 -3t-25 23.5t0.5 35t36 30.5q42 19 87.5 27.5t85.5 8.5q79 0 124 -29t61 -79t6 -114l-35 -223q-9 -62 -68 -62
q-27 0 -40.5 17.5t-8.5 51.5l2 10q-25 -42 -64.5 -61.5t-82.5 -19.5zM232 76q47 0 82 30.5t43 82.5l5 29h-52q-88 0 -123.5 -14.5t-35.5 -54.5q0 -35 23.5 -54t57.5 -19zM164 582q-15 1 -22.5 11t-3.5 26q13 56 46 86.5t77 30.5q25 0 43 -10t33 -23t30 -23t34 -10
q20 0 36.5 13t22.5 34q8 27 38 25q15 -1 22.5 -10.5t3.5 -26.5q-13 -56 -46 -86.5t-77 -30.5q-25 0 -43.5 10t-33.5 23t-30 23t-33 10q-19 0 -36 -13t-23 -34q-8 -27 -38 -25z" />
    <glyph glyph-name="ae" unicode="&#xe6;" horiz-adv-x="865" 
d="M215 -10q-48 0 -90.5 17t-69 51t-26.5 83q0 77 66.5 113t208.5 36h69l2 13q17 102 -92 102q-33 0 -64 -6.5t-64 -21.5q-23 -10 -40.5 -3t-25 23.5t0.5 35t36 30.5q42 19 87.5 27.5t85.5 8.5q116 0 156 -75q32 35 76.5 55t98.5 20q65 0 107 -22.5t65 -59t30 -79t1 -82.5
l-2 -14q-3 -24 -31 -24h-320q-3 -62 32 -97.5t100 -35.5q30 0 62 6.5t58 21.5q23 14 39.5 8.5t24 -20.5t2 -33.5t-25.5 -32.5q-35 -23 -83 -34t-88 -11q-73 0 -123.5 28t-75.5 78q-27 -54 -77.5 -80t-109.5 -26zM628 414q-59 0 -92.5 -37.5t-44.5 -86.5h243q3 52 -21.5 88
t-84.5 36zM232 78q47 0 81.5 27.5t42.5 79.5l5 33h-50q-88 0 -124 -15.5t-36 -54.5q0 -33 23.5 -51.5t57.5 -18.5z" />
    <glyph glyph-name="aeacute" unicode="&#x1fd;" horiz-adv-x="865" 
d="M215 -10q-48 0 -90.5 17t-69 51t-26.5 83q0 77 66.5 113t208.5 36h69l2 13q17 102 -92 102q-33 0 -64 -6.5t-64 -21.5q-23 -10 -40.5 -3t-25 23.5t0.5 35t36 30.5q42 19 87.5 27.5t85.5 8.5q116 0 156 -75q32 35 76.5 55t98.5 20q65 0 107 -22.5t65 -59t30 -79t1 -82.5
l-2 -14q-3 -24 -31 -24h-320q-3 -62 32 -97.5t100 -35.5q30 0 62 6.5t58 21.5q23 14 39.5 8.5t24 -20.5t2 -33.5t-25.5 -32.5q-35 -23 -83 -34t-88 -11q-73 0 -123.5 28t-75.5 78q-27 -54 -77.5 -80t-109.5 -26zM628 414q-59 0 -92.5 -37.5t-44.5 -86.5h243q3 52 -21.5 88
t-84.5 36zM232 78q47 0 81.5 27.5t42.5 79.5l5 33h-50q-88 0 -124 -15.5t-36 -54.5q0 -33 23.5 -51.5t57.5 -18.5zM495 559q-16 -19 -35 -16t-27.5 20t5.5 38l96 147q15 23 35.5 25.5t36.5 -8.5t20 -30t-13 -39z" />
    <glyph glyph-name="b" unicode="b" 
d="M318 -10q-53 0 -95 24.5t-61 72.5l-5 -32q-9 -63 -68 -63q-29 0 -43.5 19.5t-9.5 53.5l93 585q11 63 72 63q29 0 43 -19t9 -54l-36 -222q28 38 69.5 59.5t92.5 21.5q84 0 134.5 -56.5t50.5 -154.5q0 -83 -29.5 -150.5t-84.5 -107.5t-132 -40zM295 85q46 0 77.5 26
t48.5 71t17 100q0 59 -28.5 90.5t-78.5 31.5q-45 0 -77 -26t-49 -70.5t-17 -100.5q0 -59 28.5 -90.5t78.5 -31.5z" />
    <glyph glyph-name="uni0253" unicode="&#x253;" 
d="M318 -10q-54 0 -96 24.5t-61 72.5l-5 -33q-5 -31 -20.5 -46.5t-46.5 -15.5q-29 0 -43.5 19.5t-9.5 53.5l73 460q16 98 68.5 144t149.5 46q39 0 54 -12t15 -35q0 -21 -9.5 -37t-24.5 -16q-4 0 -12 1t-17 1q-84 0 -99 -94l-17 -105q28 38 69.5 59.5t92.5 21.5
q84 0 134.5 -56.5t50.5 -154.5q0 -83 -29.5 -150.5t-84.5 -107.5t-132 -40zM295 85q46 0 77.5 26t48.5 71t17 100q0 59 -28.5 90.5t-78.5 31.5q-45 0 -77 -26t-49 -70.5t-17 -100.5q0 -59 28.5 -90.5t78.5 -31.5z" />
    <glyph glyph-name="c" unicode="c" horiz-adv-x="472" 
d="M270 -10q-117 0 -175 61.5t-58 161.5q0 54 16.5 105.5t50.5 92t86.5 64.5t123.5 24q36 0 71 -8.5t62 -22.5q25 -13 30.5 -32.5t-2 -36.5t-24 -24.5t-36.5 3.5q-44 24 -93 24q-57 0 -91.5 -28t-50 -71t-15.5 -89q0 -57 28.5 -92t94.5 -35q19 0 40.5 5t45.5 18q18 9 33 2
t23 -22.5t3.5 -34t-26.5 -31.5q-26 -16 -65 -25t-72 -9z" />
    <glyph glyph-name="cacute" unicode="&#x107;" horiz-adv-x="472" 
d="M270 -10q-117 0 -175 61.5t-58 161.5q0 54 16.5 105.5t50.5 92t86.5 64.5t123.5 24q36 0 71 -8.5t62 -22.5q25 -13 30.5 -32.5t-2 -36.5t-24 -24.5t-36.5 3.5q-44 24 -93 24q-57 0 -91.5 -28t-50 -71t-15.5 -89q0 -57 28.5 -92t94.5 -35q19 0 40.5 5t45.5 18q18 9 33 2
t23 -22.5t3.5 -34t-26.5 -31.5q-26 -16 -65 -25t-72 -9zM367 559q-16 -19 -35 -16t-27.5 20t5.5 38l96 147q15 23 35.5 25.5t36.5 -8.5t20 -30t-13 -39z" />
    <glyph glyph-name="ccaron" unicode="&#x10d;" horiz-adv-x="472" 
d="M270 -10q-117 0 -175 61.5t-58 161.5q0 54 16.5 105.5t50.5 92t86.5 64.5t123.5 24q36 0 71 -8.5t62 -22.5q25 -13 30.5 -32.5t-2 -36.5t-24 -24.5t-36.5 3.5q-44 24 -93 24q-57 0 -91.5 -28t-50 -71t-15.5 -89q0 -57 28.5 -92t94.5 -35q19 0 40.5 5t45.5 18q18 9 33 2
t23 -22.5t3.5 -34t-26.5 -31.5q-26 -16 -65 -25t-72 -9zM319 539q-48 0 -67 46l-57 132q-7 17 -1.5 30t18 19t26.5 2.5t22 -18.5l66 -125l97 127q15 19 33.5 17.5t28 -16.5t-4.5 -37l-84 -129q-31 -48 -77 -48z" />
    <glyph glyph-name="ccedilla" unicode="&#xe7;" horiz-adv-x="472" 
d="M270 -10q-117 0 -175 61.5t-58 161.5q0 54 16.5 105.5t50.5 92t86.5 64.5t123.5 24q36 0 71 -8.5t62 -22.5q25 -13 30.5 -32.5t-2 -36.5t-24 -24.5t-36.5 3.5q-44 24 -93 24q-57 0 -91.5 -28t-50 -71t-15.5 -89q0 -57 28.5 -92t94.5 -35q19 0 40.5 5t45.5 18q18 9 33 2
t23 -22.5t3.5 -34t-26.5 -31.5q-26 -16 -65 -25t-72 -9zM224 -195q-37 0 -72 9q-16 4 -21.5 15.5t-2.5 23.5t13.5 18.5t26.5 1.5q24 -8 51 -8q57 0 57 32q0 21 -34 21q-13 0 -30 -3q-18 -3 -24 3q-7 7 -3 23l25 79h66l-18 -57h9q39 0 61 -17t22 -49q0 -42 -36 -67t-90 -25z
" />
    <glyph glyph-name="uni1E09" unicode="&#x1e09;" horiz-adv-x="472" 
d="M270 -10q-117 0 -175 61.5t-58 161.5q0 54 16.5 105.5t50.5 92t86.5 64.5t123.5 24q36 0 71 -8.5t62 -22.5q25 -13 30.5 -32.5t-2 -36.5t-24 -24.5t-36.5 3.5q-44 24 -93 24q-57 0 -91.5 -28t-50 -71t-15.5 -89q0 -57 28.5 -92t94.5 -35q19 0 40.5 5t45.5 18q18 9 33 2
t23 -22.5t3.5 -34t-26.5 -31.5q-26 -16 -65 -25t-72 -9zM224 -195q-37 0 -72 9q-16 4 -21.5 15.5t-2.5 23.5t13.5 18.5t26.5 1.5q24 -8 51 -8q57 0 57 32q0 21 -34 21q-13 0 -30 -3q-18 -3 -24 3q-7 7 -3 23l25 79h66l-18 -57h9q39 0 61 -17t22 -49q0 -42 -36 -67t-90 -25z
M367 559q-16 -19 -35 -16t-27.5 20t5.5 38l96 147q15 23 35.5 25.5t36.5 -8.5t20 -30t-13 -39z" />
    <glyph glyph-name="ccircumflex" unicode="&#x109;" horiz-adv-x="472" 
d="M270 -10q-117 0 -175 61.5t-58 161.5q0 54 16.5 105.5t50.5 92t86.5 64.5t123.5 24q36 0 71 -8.5t62 -22.5q25 -13 30.5 -32.5t-2 -36.5t-24 -24.5t-36.5 3.5q-44 24 -93 24q-57 0 -91.5 -28t-50 -71t-15.5 -89q0 -57 28.5 -92t94.5 -35q19 0 40.5 5t45.5 18q18 9 33 2
t23 -22.5t3.5 -34t-26.5 -31.5q-26 -16 -65 -25t-72 -9zM463 597q8 -17 2 -30t-18.5 -19.5t-26 -3.5t-21.5 18l-67 124l-95 -126q-13 -18 -32 -16.5t-29 16.5t4 37l84 130q14 23 32.5 35t41.5 12q46 0 67 -46z" />
    <glyph glyph-name="cdotaccent" unicode="&#x10b;" horiz-adv-x="472" 
d="M270 -10q-117 0 -175 61.5t-58 161.5q0 54 16.5 105.5t50.5 92t86.5 64.5t123.5 24q36 0 71 -8.5t62 -22.5q25 -13 30.5 -32.5t-2 -36.5t-24 -24.5t-36.5 3.5q-44 24 -93 24q-57 0 -91.5 -28t-50 -71t-15.5 -89q0 -57 28.5 -92t94.5 -35q19 0 40.5 5t45.5 18q18 9 33 2
t23 -22.5t3.5 -34t-26.5 -31.5q-26 -16 -65 -25t-72 -9zM327 593q-57 0 -57 49q0 35 20.5 55.5t56.5 20.5q57 0 57 -49q0 -35 -20.5 -55.5t-56.5 -20.5z" />
    <glyph glyph-name="d" unicode="d" 
d="M220 -10q-83 0 -133.5 57t-50.5 154q0 84 29.5 151.5t85 107t131.5 39.5q53 0 93.5 -23.5t60.5 -69.5l39 248q9 59 72 59q29 0 42.5 -18t8.5 -53l-93 -586q-11 -64 -72 -64q-29 0 -41.5 20.5t-6.5 54.5l2 12q-28 -41 -70.5 -65t-96.5 -24zM269 85q46 0 77.5 26.5t48.5 71
t17 99.5q0 59 -28.5 90.5t-78.5 31.5q-45 0 -77 -26t-49 -70.5t-17 -100.5q0 -59 28.5 -90.5t78.5 -31.5z" />
    <glyph glyph-name="eth" unicode="&#xf0;" horiz-adv-x="581" 
d="M262 -10q-65 0 -117 25.5t-81.5 71.5t-29.5 106q0 76 33 134t90.5 90.5t128.5 32.5q48 0 87.5 -16t62.5 -51q-8 57 -35 104t-68 81l-131 -57q-20 -9 -33 2.5t-12 29t21 26.5l91 40q-13 6 -27.5 11.5t-28.5 9.5q-22 7 -30 22t-4 30t19 23.5t40 2.5q38 -10 71.5 -23.5
t61.5 -30.5l120 53q22 10 35 -2t12 -29.5t-22 -26.5l-86 -38q63 -58 91.5 -134.5t28.5 -159.5q0 -90 -32 -164t-95.5 -118.5t-160.5 -44.5zM273 87q59 0 99 42t40 118q0 51 -30 80t-83 29q-59 0 -99 -42t-40 -118q0 -51 30.5 -80t82.5 -29z" />
    <glyph glyph-name="dcaron" unicode="&#x10f;" 
d="M220 -10q-83 0 -133.5 57t-50.5 154q0 84 29.5 151.5t85 107t131.5 39.5q53 0 93.5 -23.5t60.5 -69.5l39 248q9 59 72 59q29 0 42.5 -18t8.5 -53l-93 -586q-11 -64 -72 -64q-29 0 -41.5 20.5t-6.5 54.5l2 12q-28 -41 -70.5 -65t-96.5 -24zM269 85q46 0 77.5 26.5t48.5 71
t17 99.5q0 59 -28.5 90.5t-78.5 31.5q-45 0 -77 -26t-49 -70.5t-17 -100.5q0 -59 28.5 -90.5t78.5 -31.5zM646 506q-30 0 -24 34l22 135q6 38 45 38q21 0 30 -12.5t2 -34.5l-39 -132q-8 -28 -36 -28z" />
    <glyph glyph-name="dcroat" unicode="&#x111;" 
d="M220 -10q-83 0 -133.5 57t-50.5 154q0 84 29.5 151.5t85 107t131.5 39.5q53 0 93.5 -23.5t60.5 -70.5l22 139h-140q-48 0 -48 36q0 24 14 38t39 14h149l3 20q9 61 72 61q29 0 43 -17t8 -52l-2 -12h39q48 0 48 -36q0 -25 -14.5 -38.5t-39.5 -13.5h-47l-77 -488
q-11 -64 -72 -64q-29 0 -41.5 20.5t-6.5 54.5l2 12q-28 -41 -70.5 -65t-96.5 -24zM269 85q46 0 77.5 26.5t48.5 71t17 99.5q0 59 -28.5 90.5t-78.5 31.5q-45 0 -77 -26t-49 -70.5t-17 -100.5q0 -59 28.5 -90.5t78.5 -31.5z" />
    <glyph glyph-name="uni1E0D" unicode="&#x1e0d;" 
d="M220 -10q-83 0 -133.5 57t-50.5 154q0 84 29.5 151.5t85 107t131.5 39.5q53 0 93.5 -23.5t60.5 -69.5l39 248q9 59 72 59q29 0 42.5 -18t8.5 -53l-93 -586q-11 -64 -72 -64q-29 0 -41.5 20.5t-6.5 54.5l2 12q-28 -41 -70.5 -65t-96.5 -24zM269 85q46 0 77.5 26.5t48.5 71
t17 99.5q0 59 -28.5 90.5t-78.5 31.5q-45 0 -77 -26t-49 -70.5t-17 -100.5q0 -59 28.5 -90.5t78.5 -31.5zM234 -209q-56 0 -56 50q0 35 20.5 55t55.5 20q57 0 57 -49q0 -34 -20.5 -55t-56.5 -21z" />
    <glyph glyph-name="uni0257" unicode="&#x257;" 
d="M220 -10q-83 0 -133.5 57t-50.5 154q0 84 29.5 151.5t85 107t131.5 39.5q53 0 93.5 -23.5t60.5 -70.5l19 120q16 98 68 144t148 46q39 0 54.5 -12t15.5 -35q0 -21 -9.5 -37t-24.5 -16q-4 0 -12.5 1t-16.5 1q-84 0 -99 -95l-74 -466q-11 -64 -72 -64q-29 0 -41.5 20.5
t-6.5 54.5l2 12q-28 -41 -70.5 -65t-96.5 -24zM269 85q46 0 77.5 26.5t48.5 71t17 99.5q0 59 -28.5 90.5t-78.5 31.5q-45 0 -77 -26t-49 -70.5t-17 -100.5q0 -59 28.5 -90.5t78.5 -31.5z" />
    <glyph glyph-name="uni1E0F" unicode="&#x1e0f;" 
d="M220 -10q-83 0 -133.5 57t-50.5 154q0 84 29.5 151.5t85 107t131.5 39.5q53 0 93.5 -23.5t60.5 -69.5l39 248q9 59 72 59q29 0 42.5 -18t8.5 -53l-93 -586q-11 -64 -72 -64q-29 0 -41.5 20.5t-6.5 54.5l2 12q-28 -41 -70.5 -65t-96.5 -24zM269 85q46 0 77.5 26.5t48.5 71
t17 99.5q0 59 -28.5 90.5t-78.5 31.5q-45 0 -77 -26t-49 -70.5t-17 -100.5q0 -59 28.5 -90.5t78.5 -31.5zM123 -165q-40 0 -40 31q0 20 12 31.5t32 11.5h247q40 0 40 -31q0 -19 -12 -31t-32 -12h-247z" />
    <glyph glyph-name="uni01C6" unicode="&#x1c6;" horiz-adv-x="1074" 
d="M220 -10q-83 0 -133.5 57t-50.5 154q0 84 29.5 151.5t85 107t131.5 39.5q53 0 93.5 -23.5t60.5 -69.5l39 248q9 59 72 59q29 0 42.5 -18t8.5 -53l-93 -586q-11 -64 -72 -64q-29 0 -41.5 20.5t-6.5 54.5l2 12q-28 -41 -70.5 -65t-96.5 -24zM269 85q46 0 77.5 26.5t48.5 71
t17 99.5q0 59 -28.5 90.5t-78.5 31.5q-45 0 -77 -26t-49 -70.5t-17 -100.5q0 -59 28.5 -90.5t78.5 -31.5zM669 0q-27 0 -41.5 14.5t-13 36.5t21.5 43l281 301h-195q-50 0 -50 39q0 26 15.5 40.5t40.5 14.5h289q29 0 43 -14.5t11.5 -37t-24.5 -45.5l-279 -298h207
q50 0 50 -39q0 -25 -15 -40t-41 -15h-300zM887 539q-48 0 -67 46l-57 132q-7 17 -1.5 30t18 19t26.5 2.5t22 -18.5l66 -125l97 127q15 19 33.5 17.5t28 -16.5t-4.5 -37l-84 -129q-31 -48 -77 -48z" />
    <glyph glyph-name="e" unicode="e" horiz-adv-x="542" 
d="M280 -10q-74 0 -128.5 27.5t-84.5 77.5t-30 117q0 82 34.5 146.5t95.5 102.5t140 38q61 0 102 -21t65 -56.5t32 -80.5t3 -92q-2 -21 -11 -27t-25 -6h-319q-2 -61 34 -96t103 -35q30 0 62 6.5t58 21.5q23 14 39.5 8.5t24 -20.5t2 -33.5t-25.5 -32.5q-35 -23 -83 -34
t-88 -11zM306 414q-42 0 -70.5 -17.5t-46 -46.5t-24.5 -62h247q4 54 -21 90t-85 36z" />
    <glyph glyph-name="eacute" unicode="&#xe9;" horiz-adv-x="542" 
d="M280 -10q-74 0 -128.5 27.5t-84.5 77.5t-30 117q0 82 34.5 146.5t95.5 102.5t140 38q61 0 102 -21t65 -56.5t32 -80.5t3 -92q-2 -21 -11 -27t-25 -6h-319q-2 -61 34 -96t103 -35q30 0 62 6.5t58 21.5q23 14 39.5 8.5t24 -20.5t2 -33.5t-25.5 -32.5q-35 -23 -83 -34
t-88 -11zM306 414q-42 0 -70.5 -17.5t-46 -46.5t-24.5 -62h247q4 54 -21 90t-85 36zM377 559q-16 -19 -35 -16t-27.5 20t5.5 38l96 147q15 23 35.5 25.5t36.5 -8.5t20 -30t-13 -39z" />
    <glyph glyph-name="ebreve" unicode="&#x115;" horiz-adv-x="542" 
d="M280 -10q-74 0 -128.5 27.5t-84.5 77.5t-30 117q0 82 34.5 146.5t95.5 102.5t140 38q61 0 102 -21t65 -56.5t32 -80.5t3 -92q-2 -21 -11 -27t-25 -6h-319q-2 -61 34 -96t103 -35q30 0 62 6.5t58 21.5q23 14 39.5 8.5t24 -20.5t2 -33.5t-25.5 -32.5q-35 -23 -83 -34
t-88 -11zM306 414q-42 0 -70.5 -17.5t-46 -46.5t-24.5 -62h247q4 54 -21 90t-85 36zM340 551q-66 0 -106.5 43t-45.5 116q-2 38 32 42q17 2 28.5 -5.5t12.5 -26.5q3 -46 25 -69.5t58 -23.5q35 0 62 24.5t37 69.5q8 34 42 31q17 -1 25 -14t3 -34q-18 -72 -64 -112.5
t-109 -40.5z" />
    <glyph glyph-name="ecaron" unicode="&#x11b;" horiz-adv-x="542" 
d="M280 -10q-74 0 -128.5 27.5t-84.5 77.5t-30 117q0 82 34.5 146.5t95.5 102.5t140 38q61 0 102 -21t65 -56.5t32 -80.5t3 -92q-2 -21 -11 -27t-25 -6h-319q-2 -61 34 -96t103 -35q30 0 62 6.5t58 21.5q23 14 39.5 8.5t24 -20.5t2 -33.5t-25.5 -32.5q-35 -23 -83 -34
t-88 -11zM306 414q-42 0 -70.5 -17.5t-46 -46.5t-24.5 -62h247q4 54 -21 90t-85 36zM329 539q-48 0 -67 46l-57 132q-7 17 -1.5 30t18 19t26.5 2.5t22 -18.5l66 -125l97 127q15 19 33.5 17.5t28 -16.5t-4.5 -37l-84 -129q-31 -48 -77 -48z" />
    <glyph glyph-name="uni1E1D" unicode="&#x1e1d;" horiz-adv-x="542" 
d="M280 -10q-74 0 -128.5 27.5t-84.5 77.5t-30 117q0 82 34.5 146.5t95.5 102.5t140 38q61 0 102 -21t65 -56.5t32 -80.5t3 -92q-2 -21 -11 -27t-25 -6h-319q-2 -61 34 -96t103 -35q30 0 62 6.5t58 21.5q23 14 39.5 8.5t24 -20.5t2 -33.5t-25.5 -32.5q-35 -23 -83 -34
t-88 -11zM306 414q-42 0 -70.5 -17.5t-46 -46.5t-24.5 -62h247q4 54 -21 90t-85 36zM234 -195q-37 0 -72 9q-16 4 -21.5 15.5t-2.5 23.5t13.5 18.5t26.5 1.5q24 -8 51 -8q57 0 57 32q0 21 -34 21q-13 0 -30 -3q-18 -3 -24 3q-7 7 -3 23l25 79h66l-18 -57h9q39 0 61 -17
t22 -49q0 -42 -36 -67t-90 -25zM340 551q-66 0 -106.5 43t-45.5 116q-2 38 32 42q17 2 28.5 -5.5t12.5 -26.5q3 -46 25 -69.5t58 -23.5q35 0 62 24.5t37 69.5q8 34 42 31q17 -1 25 -14t3 -34q-18 -72 -64 -112.5t-109 -40.5z" />
    <glyph glyph-name="ecircumflex" unicode="&#xea;" horiz-adv-x="542" 
d="M280 -10q-74 0 -128.5 27.5t-84.5 77.5t-30 117q0 82 34.5 146.5t95.5 102.5t140 38q61 0 102 -21t65 -56.5t32 -80.5t3 -92q-2 -21 -11 -27t-25 -6h-319q-2 -61 34 -96t103 -35q30 0 62 6.5t58 21.5q23 14 39.5 8.5t24 -20.5t2 -33.5t-25.5 -32.5q-35 -23 -83 -34
t-88 -11zM306 414q-42 0 -70.5 -17.5t-46 -46.5t-24.5 -62h247q4 54 -21 90t-85 36zM473 597q8 -17 2 -30t-18.5 -19.5t-26 -3.5t-21.5 18l-67 124l-95 -126q-13 -18 -32 -16.5t-29 16.5t4 37l84 130q14 23 32.5 35t41.5 12q46 0 67 -46z" />
    <glyph glyph-name="uni1EBF" unicode="&#x1ebf;" horiz-adv-x="542" 
d="M280 -10q-74 0 -128.5 27.5t-84.5 77.5t-30 117q0 82 34.5 146.5t95.5 102.5t140 38q61 0 102 -21t65 -56.5t32 -80.5t3 -92q-2 -21 -11 -27t-25 -6h-319q-2 -61 34 -96t103 -35q30 0 62 6.5t58 21.5q23 14 39.5 8.5t24 -20.5t2 -33.5t-25.5 -32.5q-35 -23 -83 -34
t-88 -11zM306 414q-42 0 -70.5 -17.5t-46 -46.5t-24.5 -62h247q4 54 -21 90t-85 36zM508 654q-13 -15 -29 -13t-23.5 15t3.5 31l74 115q12 18 28.5 20t30 -7.5t17 -25t-11.5 -32.5zM239 555q-16 -16 -32.5 -11.5t-23.5 19t4 28.5l72 93q15 19 35 29.5t47 10.5q33 0 49 -14
t26 -32l51 -87q11 -18 1 -32t-28.5 -16t-32.5 15l-74 91z" />
    <glyph glyph-name="uni1EC7" unicode="&#x1ec7;" horiz-adv-x="542" 
d="M280 -10q-74 0 -128.5 27.5t-84.5 77.5t-30 117q0 82 34.5 146.5t95.5 102.5t140 38q61 0 102 -21t65 -56.5t32 -80.5t3 -92q-2 -21 -11 -27t-25 -6h-319q-2 -61 34 -96t103 -35q30 0 62 6.5t58 21.5q23 14 39.5 8.5t24 -20.5t2 -33.5t-25.5 -32.5q-35 -23 -83 -34
t-88 -11zM306 414q-42 0 -70.5 -17.5t-46 -46.5t-24.5 -62h247q4 54 -21 90t-85 36zM221 -209q-56 0 -56 50q0 35 20.5 55t55.5 20q57 0 57 -49q0 -34 -20.5 -55t-56.5 -21zM473 597q8 -17 2 -30t-18.5 -19.5t-26 -3.5t-21.5 18l-67 124l-95 -126q-13 -18 -32 -16.5
t-29 16.5t4 37l84 130q14 23 32.5 35t41.5 12q46 0 67 -46z" />
    <glyph glyph-name="uni1EC1" unicode="&#x1ec1;" horiz-adv-x="542" 
d="M280 -10q-74 0 -128.5 27.5t-84.5 77.5t-30 117q0 82 34.5 146.5t95.5 102.5t140 38q61 0 102 -21t65 -56.5t32 -80.5t3 -92q-2 -21 -11 -27t-25 -6h-319q-2 -61 34 -96t103 -35q30 0 62 6.5t58 21.5q23 14 39.5 8.5t24 -20.5t2 -33.5t-25.5 -32.5q-35 -23 -83 -34
t-88 -11zM306 414q-42 0 -70.5 -17.5t-46 -46.5t-24.5 -62h247q4 54 -21 90t-85 36zM486 656l-73 105q-12 17 -5.5 32.5t22 23.5t32.5 5t26 -23l54 -112q10 -19 0 -32t-27 -14t-29 15zM241 555q-16 -16 -32.5 -11.5t-23.5 19t4 28.5l72 93q15 19 35 29.5t47 10.5
q33 0 49 -14t26 -32l51 -87q11 -18 1 -32t-28.5 -16t-32.5 15l-74 91z" />
    <glyph glyph-name="uni1EC3" unicode="&#x1ec3;" horiz-adv-x="542" 
d="M280 -10q-74 0 -128.5 27.5t-84.5 77.5t-30 117q0 82 34.5 146.5t95.5 102.5t140 38q61 0 102 -21t65 -56.5t32 -80.5t3 -92q-2 -21 -11 -27t-25 -6h-319q-2 -61 34 -96t103 -35q30 0 62 6.5t58 21.5q23 14 39.5 8.5t24 -20.5t2 -33.5t-25.5 -32.5q-35 -23 -83 -34
t-88 -11zM306 414q-42 0 -70.5 -17.5t-46 -46.5t-24.5 -62h247q4 54 -21 90t-85 36zM504 658q-17 -8 -32.5 -4.5t-19.5 14t11 20.5q20 14 31.5 25.5t11.5 24.5q0 11 -9 16.5t-23 5.5q-9 0 -19 -1t-20 -3q-13 -2 -22 0.5t-12 14.5q-6 24 20 33q17 5 36 7.5t40 2.5
q47 0 69.5 -15.5t22.5 -41.5q0 -21 -13 -40t-32.5 -34t-39.5 -25zM241 555q-16 -16 -32.5 -11.5t-23.5 19t4 28.5l72 93q15 19 35 29.5t47 10.5q33 0 49 -14t26 -32l51 -87q11 -18 1 -32t-28.5 -16t-32.5 15l-74 91z" />
    <glyph glyph-name="uni1EC5" unicode="&#x1ec5;" horiz-adv-x="542" 
d="M280 -10q-74 0 -128.5 27.5t-84.5 77.5t-30 117q0 82 34.5 146.5t95.5 102.5t140 38q61 0 102 -21t65 -56.5t32 -80.5t3 -92q-2 -21 -11 -27t-25 -6h-319q-2 -61 34 -96t103 -35q30 0 62 6.5t58 21.5q23 14 39.5 8.5t24 -20.5t2 -33.5t-25.5 -32.5q-35 -23 -83 -34
t-88 -11zM306 414q-42 0 -70.5 -17.5t-46 -46.5t-24.5 -62h247q4 54 -21 90t-85 36zM203 708q-14 1 -21 11.5t-1 27.5q26 75 103 75q26 0 48 -11t41.5 -22t37.5 -11q16 0 29 6t19 21q8 22 35 21q14 -1 21 -11.5t1 -27.5q-26 -75 -103 -75q-26 0 -48.5 11t-41.5 22t-37 11
q-16 0 -29 -6t-19 -21q-8 -22 -35 -21zM235 552q-18 -13 -32.5 -9t-19 17.5t8.5 27.5l69 75q14 15 32 27.5t49 12.5q32 0 45.5 -14.5t26.5 -31.5l54 -72q12 -15 4 -27.5t-25 -14.5t-34 12l-80 71z" />
    <glyph glyph-name="uni0205" unicode="&#x205;" horiz-adv-x="542" 
d="M280 -10q-74 0 -128.5 27.5t-84.5 77.5t-30 117q0 82 34.5 146.5t95.5 102.5t140 38q61 0 102 -21t65 -56.5t32 -80.5t3 -92q-2 -21 -11 -27t-25 -6h-319q-2 -61 34 -96t103 -35q30 0 62 6.5t58 21.5q23 14 39.5 8.5t24 -20.5t2 -33.5t-25.5 -32.5q-35 -23 -83 -34
t-88 -11zM306 414q-42 0 -70.5 -17.5t-46 -46.5t-24.5 -62h247q4 54 -21 90t-85 36zM369 569l-50 144q-9 25 2.5 41t31 20t37.5 -5.5t22 -36.5l24 -149q4 -22 -10.5 -32t-32 -6t-24.5 24zM221 569l-50 144q-9 25 2.5 41t31 20t37.5 -5.5t22 -36.5l24 -149q4 -22 -10.5 -32
t-32 -6t-24.5 24z" />
    <glyph glyph-name="edieresis" unicode="&#xeb;" horiz-adv-x="542" 
d="M280 -10q-74 0 -128.5 27.5t-84.5 77.5t-30 117q0 82 34.5 146.5t95.5 102.5t140 38q61 0 102 -21t65 -56.5t32 -80.5t3 -92q-2 -21 -11 -27t-25 -6h-319q-2 -61 34 -96t103 -35q30 0 62 6.5t58 21.5q23 14 39.5 8.5t24 -20.5t2 -33.5t-25.5 -32.5q-35 -23 -83 -34
t-88 -11zM306 414q-42 0 -70.5 -17.5t-46 -46.5t-24.5 -62h247q4 54 -21 90t-85 36zM433 593q-53 0 -53 48q0 34 19 54.5t53 20.5q53 0 53 -48q0 -34 -18.5 -54.5t-53.5 -20.5zM244 593q-54 0 -54 48q0 34 19 54.5t53 20.5q54 0 54 -48q0 -34 -18.5 -54.5t-53.5 -20.5z" />
    <glyph glyph-name="edotaccent" unicode="&#x117;" horiz-adv-x="542" 
d="M280 -10q-74 0 -128.5 27.5t-84.5 77.5t-30 117q0 82 34.5 146.5t95.5 102.5t140 38q61 0 102 -21t65 -56.5t32 -80.5t3 -92q-2 -21 -11 -27t-25 -6h-319q-2 -61 34 -96t103 -35q30 0 62 6.5t58 21.5q23 14 39.5 8.5t24 -20.5t2 -33.5t-25.5 -32.5q-35 -23 -83 -34
t-88 -11zM306 414q-42 0 -70.5 -17.5t-46 -46.5t-24.5 -62h247q4 54 -21 90t-85 36zM337 593q-57 0 -57 49q0 35 20.5 55.5t56.5 20.5q57 0 57 -49q0 -35 -20.5 -55.5t-56.5 -20.5z" />
    <glyph glyph-name="uni1EB9" unicode="&#x1eb9;" horiz-adv-x="542" 
d="M280 -10q-74 0 -128.5 27.5t-84.5 77.5t-30 117q0 82 34.5 146.5t95.5 102.5t140 38q61 0 102 -21t65 -56.5t32 -80.5t3 -92q-2 -21 -11 -27t-25 -6h-319q-2 -61 34 -96t103 -35q30 0 62 6.5t58 21.5q23 14 39.5 8.5t24 -20.5t2 -33.5t-25.5 -32.5q-35 -23 -83 -34
t-88 -11zM306 414q-42 0 -70.5 -17.5t-46 -46.5t-24.5 -62h247q4 54 -21 90t-85 36zM221 -209q-56 0 -56 50q0 35 20.5 55t55.5 20q57 0 57 -49q0 -34 -20.5 -55t-56.5 -21z" />
    <glyph glyph-name="egrave" unicode="&#xe8;" horiz-adv-x="542" 
d="M280 -10q-74 0 -128.5 27.5t-84.5 77.5t-30 117q0 82 34.5 146.5t95.5 102.5t140 38q61 0 102 -21t65 -56.5t32 -80.5t3 -92q-2 -21 -11 -27t-25 -6h-319q-2 -61 34 -96t103 -35q30 0 62 6.5t58 21.5q23 14 39.5 8.5t24 -20.5t2 -33.5t-25.5 -32.5q-35 -23 -83 -34
t-88 -11zM306 414q-42 0 -70.5 -17.5t-46 -46.5t-24.5 -62h247q4 54 -21 90t-85 36zM281 564l-91 131q-17 24 -11 43.5t24.5 28.5t40 2.5t35.5 -33.5l70 -137q9 -17 4 -30.5t-17.5 -20.5t-27.5 -4t-27 20z" />
    <glyph glyph-name="uni1EBB" unicode="&#x1ebb;" horiz-adv-x="542" 
d="M280 -10q-74 0 -128.5 27.5t-84.5 77.5t-30 117q0 82 34.5 146.5t95.5 102.5t140 38q61 0 102 -21t65 -56.5t32 -80.5t3 -92q-2 -21 -11 -27t-25 -6h-319q-2 -61 34 -96t103 -35q30 0 62 6.5t58 21.5q23 14 39.5 8.5t24 -20.5t2 -33.5t-25.5 -32.5q-35 -23 -83 -34
t-88 -11zM306 414q-42 0 -70.5 -17.5t-46 -46.5t-24.5 -62h247q4 54 -21 90t-85 36zM325 546q-17 0 -26.5 7.5t-7.5 20.5q3 22 14 36.5t23 25t21 20.5t9 23q0 23 -39 23q-10 0 -18.5 -1.5t-19.5 -3.5q-12 -3 -23.5 -0.5t-14.5 14.5q-8 29 22 40q39 14 86 14q48 0 74.5 -17.5
t26.5 -47.5q0 -28 -11.5 -44.5t-27.5 -28.5t-29.5 -25t-17.5 -34q-4 -22 -41 -22z" />
    <glyph glyph-name="uni0207" unicode="&#x207;" horiz-adv-x="542" 
d="M280 -10q-74 0 -128.5 27.5t-84.5 77.5t-30 117q0 82 34.5 146.5t95.5 102.5t140 38q61 0 102 -21t65 -56.5t32 -80.5t3 -92q-2 -21 -11 -27t-25 -6h-319q-2 -61 34 -96t103 -35q30 0 62 6.5t58 21.5q23 14 39.5 8.5t24 -20.5t2 -33.5t-25.5 -32.5q-35 -23 -83 -34
t-88 -11zM306 414q-42 0 -70.5 -17.5t-46 -46.5t-24.5 -62h247q4 54 -21 90t-85 36zM195 550q-17 2 -25 14.5t-3 33.5q18 72 64 112.5t109 40.5q66 0 107.5 -42.5t44.5 -116.5q2 -38 -32 -42q-16 -2 -27 5.5t-13 26.5q-4 46 -26 69.5t-58 23.5q-35 0 -61.5 -24.5
t-37.5 -69.5q-8 -34 -42 -31z" />
    <glyph glyph-name="emacron" unicode="&#x113;" horiz-adv-x="542" 
d="M280 -10q-74 0 -128.5 27.5t-84.5 77.5t-30 117q0 82 34.5 146.5t95.5 102.5t140 38q61 0 102 -21t65 -56.5t32 -80.5t3 -92q-2 -21 -11 -27t-25 -6h-319q-2 -61 34 -96t103 -35q30 0 62 6.5t58 21.5q23 14 39.5 8.5t24 -20.5t2 -33.5t-25.5 -32.5q-35 -23 -83 -34
t-88 -11zM306 414q-42 0 -70.5 -17.5t-46 -46.5t-24.5 -62h247q4 54 -21 90t-85 36zM221 616q-40 0 -40 31q0 20 12 31.5t33 11.5h247q40 0 40 -31q0 -19 -12 -31t-33 -12h-247z" />
    <glyph glyph-name="uni1E17" unicode="&#x1e17;" horiz-adv-x="542" 
d="M280 -10q-74 0 -128.5 27.5t-84.5 77.5t-30 117q0 82 34.5 146.5t95.5 102.5t140 38q61 0 102 -21t65 -56.5t32 -80.5t3 -92q-2 -21 -11 -27t-25 -6h-319q-2 -61 34 -96t103 -35q30 0 62 6.5t58 21.5q23 14 39.5 8.5t24 -20.5t2 -33.5t-25.5 -32.5q-35 -23 -83 -34
t-88 -11zM306 414q-42 0 -70.5 -17.5t-46 -46.5t-24.5 -62h247q4 54 -21 90t-85 36zM388 679q-16 -17 -34 -15t-25 17.5t6 36.5l55 86q14 22 33 24.5t34.5 -8t19 -28.5t-14.5 -36zM217 567q-40 0 -40 31q0 19 11.5 31t33.5 12h239q41 0 41 -31q0 -19 -11.5 -31t-33.5 -12
h-240z" />
    <glyph glyph-name="uni1E15" unicode="&#x1e15;" horiz-adv-x="542" 
d="M280 -10q-74 0 -128.5 27.5t-84.5 77.5t-30 117q0 82 34.5 146.5t95.5 102.5t140 38q61 0 102 -21t65 -56.5t32 -80.5t3 -92q-2 -21 -11 -27t-25 -6h-319q-2 -61 34 -96t103 -35q30 0 62 6.5t58 21.5q23 14 39.5 8.5t24 -20.5t2 -33.5t-25.5 -32.5q-35 -23 -83 -34
t-88 -11zM306 414q-42 0 -70.5 -17.5t-46 -46.5t-24.5 -62h247q4 54 -21 90t-85 36zM307 681l-62 79q-15 19 -8.5 36t24.5 26t38 4t32 -29l40 -85q11 -22 0 -35.5t-30 -13.5t-34 18zM219 567q-40 0 -40 31q0 19 11.5 31t33.5 12h239q41 0 41 -31q0 -19 -11.5 -31t-33.5 -12
h-240z" />
    <glyph glyph-name="eogonek" unicode="&#x119;" horiz-adv-x="542" 
d="M280 -10q-74 0 -128.5 27.5t-84.5 77.5t-30 117q0 82 34.5 146.5t95.5 102.5t140 38q61 0 102 -21t65 -56.5t32 -80.5t3 -92q-2 -21 -11 -27t-25 -6h-319q-2 -61 34 -96t103 -35q30 0 62 6.5t58 21.5q23 14 39.5 8.5t24 -20.5t2 -33.5t-25.5 -32.5q-35 -23 -83 -34
t-88 -11zM306 414q-42 0 -70.5 -17.5t-46 -46.5t-24.5 -62h247q4 54 -21 90t-85 36zM301 -195q-54 0 -80.5 26.5t-26.5 65.5q0 96 112 145l34 -42q-31 -13 -49 -34t-18 -47q0 -21 14 -34t37 -13q8 0 16 1t18 4q21 6 29.5 -7t4.5 -30.5t-21 -23.5q-31 -11 -70 -11z" />
    <glyph glyph-name="uni1EBD" unicode="&#x1ebd;" horiz-adv-x="542" 
d="M280 -10q-74 0 -128.5 27.5t-84.5 77.5t-30 117q0 82 34.5 146.5t95.5 102.5t140 38q61 0 102 -21t65 -56.5t32 -80.5t3 -92q-2 -21 -11 -27t-25 -6h-319q-2 -61 34 -96t103 -35q30 0 62 6.5t58 21.5q23 14 39.5 8.5t24 -20.5t2 -33.5t-25.5 -32.5q-35 -23 -83 -34
t-88 -11zM306 414q-42 0 -70.5 -17.5t-46 -46.5t-24.5 -62h247q4 54 -21 90t-85 36zM174 582q-15 1 -22.5 11t-3.5 26q13 56 46 86.5t77 30.5q25 0 43 -10t33 -23t30 -23t34 -10q20 0 36.5 13t22.5 34q8 27 38 25q15 -1 22.5 -10.5t3.5 -26.5q-13 -56 -46 -86.5t-77 -30.5
q-25 0 -43.5 10t-33.5 23t-30 23t-33 10q-19 0 -36 -13t-23 -34q-8 -27 -38 -25z" />
    <glyph glyph-name="uni0259" unicode="&#x259;" horiz-adv-x="543" 
d="M236 -10q-82 0 -129.5 36t-64.5 93.5t-8 120.5q3 21 11.5 27t24.5 6h318q3 61 -31 96t-103 35q-30 0 -63 -7.5t-59 -22.5q-23 -13 -40 -8t-24.5 21t-2.5 35t26 32q35 23 83.5 34t91.5 11q111 0 175.5 -60.5t64.5 -161.5q0 -81 -34.5 -146t-95 -103t-140.5 -38zM238 75
q42 0 70.5 17.5t45.5 46.5t24 62h-240q-4 -51 20.5 -88.5t79.5 -37.5z" />
    <glyph glyph-name="uni0292" unicode="&#x292;" horiz-adv-x="516" 
d="M193 -190q-55 0 -112.5 13t-103.5 41q-21 13 -25.5 32.5t4.5 36t27 22t40 -9.5q35 -22 76 -31t82 -9q70 0 108 34.5t38 96.5q0 44 -31.5 71t-95.5 27h-60q-30 0 -37 22t18 44l212 191h-232q-27 0 -40.5 13.5t-9.5 35.5q8 49 57 49h332q29 0 42.5 -15.5t10 -37.5
t-28.5 -42l-197 -175q59 -1 100 -25.5t62.5 -64t21.5 -86.5q0 -66 -30 -118.5t-87.5 -83.5t-140.5 -31z" />
    <glyph glyph-name="uni01EF" unicode="&#x1ef;" horiz-adv-x="516" 
d="M193 -190q-55 0 -112.5 13t-103.5 41q-21 13 -25.5 32.5t4.5 36t27 22t40 -9.5q35 -22 76 -31t82 -9q70 0 108 34.5t38 96.5q0 44 -31.5 71t-95.5 27h-60q-30 0 -37 22t18 44l212 191h-232q-27 0 -40.5 13.5t-9.5 35.5q8 49 57 49h332q29 0 42.5 -15.5t10 -37.5
t-28.5 -42l-197 -175q59 -1 100 -25.5t62.5 -64t21.5 -86.5q0 -66 -30 -118.5t-87.5 -83.5t-140.5 -31zM297 539q-48 0 -67 46l-57 132q-7 17 -1.5 30t18 19t26.5 2.5t22 -18.5l66 -125l97 127q15 19 33.5 17.5t28 -16.5t-4.5 -37l-84 -129q-31 -48 -77 -48z" />
    <glyph glyph-name="f" unicode="f" horiz-adv-x="364" 
d="M121 -8q-29 0 -42.5 19.5t-8.5 53.5l53 330h-42q-49 0 -49 38q0 26 15.5 41t41.5 15h48l4 24q14 86 68 136t158 57l32 2q25 2 36.5 -11.5t11 -31.5t-10.5 -32.5t-29 -16.5l-27 -2q-52 -4 -79 -28t-35 -71l-4 -26h79q49 0 49 -37q0 -27 -15.5 -42t-41.5 -15h-85l-54 -341
q-11 -62 -73 -62z" />
    <glyph glyph-name="g" unicode="g" horiz-adv-x="604" 
d="M256 -190q-60 0 -113.5 13.5t-93.5 36.5q-21 13 -25.5 31.5t4 34.5t26.5 22.5t40 -5.5q32 -17 68.5 -27.5t75.5 -10.5q60 0 97 27t47 87l12 74q-26 -39 -68 -60t-93 -21q-88 0 -142 53.5t-54 147.5q0 77 30.5 142t86.5 104.5t132 39.5q54 0 95.5 -23t60.5 -69l5 30
q9 60 71 60q29 0 41.5 -19t7.5 -54l-63 -398q-16 -105 -78 -160.5t-170 -55.5zM272 107q47 0 79.5 25.5t49.5 68t17 91.5q0 52 -28.5 82t-81.5 30q-46 0 -78.5 -25.5t-49.5 -67.5t-17 -91q0 -53 28.5 -83t80.5 -30z" />
    <glyph glyph-name="gbreve" unicode="&#x11f;" horiz-adv-x="604" 
d="M256 -190q-60 0 -113.5 13.5t-93.5 36.5q-21 13 -25.5 31.5t4 34.5t26.5 22.5t40 -5.5q32 -17 68.5 -27.5t75.5 -10.5q60 0 97 27t47 87l12 74q-26 -39 -68 -60t-93 -21q-88 0 -142 53.5t-54 147.5q0 77 30.5 142t86.5 104.5t132 39.5q54 0 95.5 -23t60.5 -69l5 30
q9 60 71 60q29 0 41.5 -19t7.5 -54l-63 -398q-16 -105 -78 -160.5t-170 -55.5zM272 107q47 0 79.5 25.5t49.5 68t17 91.5q0 52 -28.5 82t-81.5 30q-46 0 -78.5 -25.5t-49.5 -67.5t-17 -91q0 -53 28.5 -83t80.5 -30zM355 551q-66 0 -106.5 43t-45.5 116q-2 38 32 42
q17 2 28.5 -5.5t12.5 -26.5q3 -46 25 -69.5t58 -23.5q35 0 62 24.5t37 69.5q8 34 42 31q17 -1 25 -14t3 -34q-18 -72 -64 -112.5t-109 -40.5z" />
    <glyph glyph-name="gcaron" unicode="&#x1e7;" horiz-adv-x="604" 
d="M256 -190q-60 0 -113.5 13.5t-93.5 36.5q-21 13 -25.5 31.5t4 34.5t26.5 22.5t40 -5.5q32 -17 68.5 -27.5t75.5 -10.5q60 0 97 27t47 87l12 74q-26 -39 -68 -60t-93 -21q-88 0 -142 53.5t-54 147.5q0 77 30.5 142t86.5 104.5t132 39.5q54 0 95.5 -23t60.5 -69l5 30
q9 60 71 60q29 0 41.5 -19t7.5 -54l-63 -398q-16 -105 -78 -160.5t-170 -55.5zM272 107q47 0 79.5 25.5t49.5 68t17 91.5q0 52 -28.5 82t-81.5 30q-46 0 -78.5 -25.5t-49.5 -67.5t-17 -91q0 -53 28.5 -83t80.5 -30zM344 539q-48 0 -67 46l-57 132q-7 17 -1.5 30t18 19
t26.5 2.5t22 -18.5l66 -125l97 127q15 19 33.5 17.5t28 -16.5t-4.5 -37l-84 -129q-31 -48 -77 -48z" />
    <glyph glyph-name="gcircumflex" unicode="&#x11d;" horiz-adv-x="604" 
d="M256 -190q-60 0 -113.5 13.5t-93.5 36.5q-21 13 -25.5 31.5t4 34.5t26.5 22.5t40 -5.5q32 -17 68.5 -27.5t75.5 -10.5q60 0 97 27t47 87l12 74q-26 -39 -68 -60t-93 -21q-88 0 -142 53.5t-54 147.5q0 77 30.5 142t86.5 104.5t132 39.5q54 0 95.5 -23t60.5 -69l5 30
q9 60 71 60q29 0 41.5 -19t7.5 -54l-63 -398q-16 -105 -78 -160.5t-170 -55.5zM272 107q47 0 79.5 25.5t49.5 68t17 91.5q0 52 -28.5 82t-81.5 30q-46 0 -78.5 -25.5t-49.5 -67.5t-17 -91q0 -53 28.5 -83t80.5 -30zM488 597q8 -17 2 -30t-18.5 -19.5t-26 -3.5t-21.5 18
l-67 124l-95 -126q-13 -18 -32 -16.5t-29 16.5t4 37l84 130q14 23 32.5 35t41.5 12q46 0 67 -46z" />
    <glyph glyph-name="uni0123" unicode="&#x123;" horiz-adv-x="604" 
d="M256 -190q-60 0 -113.5 13.5t-93.5 36.5q-21 13 -25.5 31.5t4 34.5t26.5 22.5t40 -5.5q32 -17 68.5 -27.5t75.5 -10.5q60 0 97 27t47 87l12 74q-26 -39 -68 -60t-93 -21q-88 0 -142 53.5t-54 147.5q0 77 30.5 142t86.5 104.5t132 39.5q54 0 95.5 -23t60.5 -69l5 30
q9 60 71 60q29 0 41.5 -19t7.5 -54l-63 -398q-16 -105 -78 -160.5t-170 -55.5zM272 107q47 0 79.5 25.5t49.5 68t17 91.5q0 52 -28.5 82t-81.5 30q-46 0 -78.5 -25.5t-49.5 -67.5t-17 -91q0 -53 28.5 -83t80.5 -30zM351 558q-61 0 -61 56q0 36 16.5 75t42.5 64
q17 16 33 12.5t21 -18t-12 -32.5t-24 -40q58 -3 58 -51q0 -32 -20.5 -49t-53.5 -17z" />
    <glyph glyph-name="gdotaccent" unicode="&#x121;" horiz-adv-x="604" 
d="M256 -190q-60 0 -113.5 13.5t-93.5 36.5q-21 13 -25.5 31.5t4 34.5t26.5 22.5t40 -5.5q32 -17 68.5 -27.5t75.5 -10.5q60 0 97 27t47 87l12 74q-26 -39 -68 -60t-93 -21q-88 0 -142 53.5t-54 147.5q0 77 30.5 142t86.5 104.5t132 39.5q54 0 95.5 -23t60.5 -69l5 30
q9 60 71 60q29 0 41.5 -19t7.5 -54l-63 -398q-16 -105 -78 -160.5t-170 -55.5zM272 107q47 0 79.5 25.5t49.5 68t17 91.5q0 52 -28.5 82t-81.5 30q-46 0 -78.5 -25.5t-49.5 -67.5t-17 -91q0 -53 28.5 -83t80.5 -30zM352 593q-57 0 -57 49q0 35 20.5 55.5t56.5 20.5
q57 0 57 -49q0 -35 -20.5 -55.5t-56.5 -20.5z" />
    <glyph glyph-name="uni1E21" unicode="&#x1e21;" horiz-adv-x="604" 
d="M256 -190q-60 0 -113.5 13.5t-93.5 36.5q-21 13 -25.5 31.5t4 34.5t26.5 22.5t40 -5.5q32 -17 68.5 -27.5t75.5 -10.5q60 0 97 27t47 87l12 74q-26 -39 -68 -60t-93 -21q-88 0 -142 53.5t-54 147.5q0 77 30.5 142t86.5 104.5t132 39.5q54 0 95.5 -23t60.5 -69l5 30
q9 60 71 60q29 0 41.5 -19t7.5 -54l-63 -398q-16 -105 -78 -160.5t-170 -55.5zM272 107q47 0 79.5 25.5t49.5 68t17 91.5q0 52 -28.5 82t-81.5 30q-46 0 -78.5 -25.5t-49.5 -67.5t-17 -91q0 -53 28.5 -83t80.5 -30zM236 616q-40 0 -40 31q0 20 12 31.5t33 11.5h247
q40 0 40 -31q0 -19 -12 -31t-33 -12h-247z" />
    <glyph glyph-name="uni01E5" unicode="&#x1e5;" horiz-adv-x="604" 
d="M256 -190q-60 0 -113.5 13.5t-93.5 36.5q-21 13 -25.5 31.5t4 34.5t26.5 22.5t40 -5.5q32 -17 68.5 -27.5t75.5 -10.5q72 0 110 38h-62q-25 0 -34.5 11.5t-9.5 27.5q0 21 14 30t32 9h95q1 3 1 5l18 109q-26 -42 -72.5 -67t-100.5 -25q-59 0 -101.5 25.5t-65 69
t-22.5 98.5q0 75 33 134.5t90 94t128 34.5q54 0 95 -23t57 -66l4 27q9 60 71 60q29 0 41.5 -19t7.5 -54l-61 -387q-1 -4 -1.5 -8t-1.5 -8h16q25 0 34.5 -11t9.5 -28q0 -18 -14 -28.5t-32 -10.5h-36q-31 -65 -85 -99t-140 -34zM275 138q43 0 76 21t52.5 57.5t19.5 82.5
q0 49 -28.5 77t-80.5 28q-42 0 -75.5 -21t-53 -57.5t-19.5 -82.5q0 -48 28.5 -76.5t80.5 -28.5z" />
    <glyph glyph-name="h" unicode="h" horiz-adv-x="585" 
d="M88 -8q-29 0 -42.5 20.5t-8.5 54.5l92 583q9 63 72 63q29 0 43 -18.5t9 -53.5l-36 -224q55 82 166 82q80 0 122 -49.5t25 -156.5l-37 -238q-9 -63 -72 -63q-29 0 -43 19.5t-9 53.5l36 226q18 110 -72 110q-59 0 -94.5 -37t-45.5 -101l-33 -208q-9 -63 -72 -63z" />
    <glyph glyph-name="hbar" unicode="&#x127;" horiz-adv-x="585" 
d="M88 -8q-29 0 -43 19.5t-9 53.5l76 479h-41q-50 0 -45 42q5 46 53 46h47l3 19q5 35 23.5 48.5t49.5 13.5q29 0 43.5 -16t7.5 -53l-2 -12h139q54 0 48 -43q-6 -45 -53 -45h-148l-20 -128q56 83 165 83q81 0 123 -49.5t25 -156.5l-37 -238q-9 -63 -72 -63q-29 0 -43 19.5
t-9 53.5l36 227q18 109 -73 109q-58 0 -93.5 -37t-45.5 -101l-33 -208q-9 -63 -72 -63z" />
    <glyph glyph-name="uni1E2B" unicode="&#x1e2b;" horiz-adv-x="585" 
d="M88 -8q-29 0 -42.5 20.5t-8.5 54.5l92 583q9 63 72 63q29 0 43 -18.5t9 -53.5l-36 -224q55 82 166 82q80 0 122 -49.5t25 -156.5l-37 -238q-9 -63 -72 -63q-29 0 -43 19.5t-9 53.5l36 226q18 110 -72 110q-59 0 -94.5 -37t-45.5 -101l-33 -208q-9 -63 -72 -63zM238 -215
q-64 0 -105.5 32.5t-47.5 85.5q-4 41 31 46q35 4 42 -32q5 -28 28 -43t56 -15q35 0 60 16.5t36 45.5t43 28q17 -1 26 -13.5t1 -34.5q-19 -56 -63 -86t-107 -30z" />
    <glyph glyph-name="uni021F" unicode="&#x21f;" horiz-adv-x="585" 
d="M88 -8q-29 0 -42.5 20.5t-8.5 54.5l92 583q9 63 72 63q29 0 43 -18.5t9 -53.5l-36 -224q55 82 166 82q80 0 122 -49.5t25 -156.5l-37 -238q-9 -63 -72 -63q-29 0 -43 19.5t-9 53.5l36 226q18 110 -72 110q-59 0 -94.5 -37t-45.5 -101l-33 -208q-9 -63 -72 -63zM372 753
q-24 0 -40.5 12t-30.5 34l-60 96q-10 17 -6 30t16.5 19.5t28 3t27.5 -19.5l72 -93l96 100q12 13 27 14t27 -6.5t15 -19.5t-8 -26l-83 -102q-33 -42 -81 -42z" />
    <glyph glyph-name="hcircumflex" unicode="&#x125;" horiz-adv-x="585" 
d="M88 -8q-29 0 -42.5 20.5t-8.5 54.5l92 583q9 63 72 63q29 0 43 -18.5t9 -53.5l-36 -224q55 82 166 82q80 0 122 -49.5t25 -156.5l-37 -238q-9 -63 -72 -63q-29 0 -43 19.5t-9 53.5l36 226q18 110 -72 110q-59 0 -94.5 -37t-45.5 -101l-33 -208q-9 -63 -72 -63zM283 770
q-16 -17 -35.5 -14t-28 18.5t6.5 33.5l83 103q34 41 80 41q24 0 41 -12t30 -35l59 -95q11 -17 6.5 -30.5t-17.5 -20t-29 -3.5t-28 19l-71 94z" />
    <glyph glyph-name="uni1E25" unicode="&#x1e25;" horiz-adv-x="585" 
d="M88 -8q-29 0 -42.5 20.5t-8.5 54.5l92 583q9 63 72 63q29 0 43 -18.5t9 -53.5l-36 -224q55 82 166 82q80 0 122 -49.5t25 -156.5l-37 -238q-9 -63 -72 -63q-29 0 -43 19.5t-9 53.5l36 226q18 110 -72 110q-59 0 -94.5 -37t-45.5 -101l-33 -208q-9 -63 -72 -63zM225 -209
q-56 0 -56 50q0 35 20.5 55t55.5 20q57 0 57 -49q0 -34 -20.5 -55t-56.5 -21z" />
    <glyph glyph-name="i" unicode="i" horiz-adv-x="255" 
d="M183 589q-34 0 -50.5 16.5t-13.5 46.5q8 69 85 69q34 0 51 -16.5t13 -46.5q-9 -69 -85 -69zM87 -8q-29 0 -42.5 19.5t-8.5 53.5l59 370q11 62 72 62q29 0 42.5 -19t8.5 -54l-59 -370q-11 -62 -72 -62z" />
    <glyph glyph-name="dotlessi" unicode="&#x131;" horiz-adv-x="255" 
d="M87 -8q-29 0 -42.5 19.5t-8.5 53.5l59 370q11 62 72 62q29 0 42.5 -19t8.5 -54l-59 -370q-11 -62 -72 -62z" />
    <glyph glyph-name="iacute" unicode="&#xed;" horiz-adv-x="255" 
d="M87 -8q-29 0 -42.5 19.5t-8.5 53.5l59 370q11 62 72 62q29 0 42.5 -19t8.5 -54l-59 -370q-11 -62 -72 -62zM223 559q-16 -19 -35 -16t-27.5 20t5.5 38l96 147q15 23 35.5 25.5t36.5 -8.5t20 -30t-13 -39z" />
    <glyph glyph-name="ibreve" unicode="&#x12d;" horiz-adv-x="255" 
d="M87 -8q-29 0 -42.5 19.5t-8.5 53.5l59 370q11 62 72 62q29 0 42.5 -19t8.5 -54l-59 -370q-11 -62 -72 -62zM186 551q-66 0 -106.5 43t-45.5 116q-2 38 32 42q17 2 28.5 -5.5t12.5 -26.5q3 -46 25 -69.5t58 -23.5q35 0 62 24.5t37 69.5q8 34 42 31q17 -1 25 -14t3 -34
q-18 -72 -64 -112.5t-109 -40.5z" />
    <glyph glyph-name="icircumflex" unicode="&#xee;" horiz-adv-x="255" 
d="M87 -8q-29 0 -42.5 19.5t-8.5 53.5l59 370q11 62 72 62q29 0 42.5 -19t8.5 -54l-59 -370q-11 -62 -72 -62zM319 597q8 -17 2 -30t-18.5 -19.5t-26 -3.5t-21.5 18l-67 124l-95 -126q-13 -18 -32 -16.5t-29 16.5t4 37l84 130q14 23 32.5 35t41.5 12q46 0 67 -46z" />
    <glyph glyph-name="uni0209" unicode="&#x209;" horiz-adv-x="255" 
d="M87 -8q-29 0 -42.5 19.5t-8.5 53.5l59 370q11 62 72 62q29 0 42.5 -19t8.5 -54l-59 -370q-11 -62 -72 -62zM215 569l-50 144q-9 25 2.5 41t31 20t37.5 -5.5t22 -36.5l24 -149q4 -22 -10.5 -32t-32 -6t-24.5 24zM67 569l-50 144q-9 25 2.5 41t31 20t37.5 -5.5t22 -36.5
l24 -149q4 -22 -10.5 -32t-32 -6t-24.5 24z" />
    <glyph glyph-name="idieresis" unicode="&#xef;" horiz-adv-x="255" 
d="M87 -8q-29 0 -42.5 19.5t-8.5 53.5l59 370q11 62 72 62q29 0 42.5 -19t8.5 -54l-59 -370q-11 -62 -72 -62zM279 593q-53 0 -53 48q0 34 19 54.5t53 20.5q53 0 53 -48q0 -34 -18.5 -54.5t-53.5 -20.5zM90 593q-54 0 -54 48q0 34 19 54.5t53 20.5q54 0 54 -48
q0 -34 -18.5 -54.5t-53.5 -20.5z" />
    <glyph glyph-name="uni1E2F" unicode="&#x1e2f;" horiz-adv-x="255" 
d="M87 -8q-29 0 -42.5 19.5t-8.5 53.5l59 370q11 62 72 62q29 0 42.5 -19t8.5 -54l-59 -370q-11 -62 -72 -62zM236 679q-16 -17 -34 -15t-25.5 17.5t6.5 36.5l55 86q14 21 33 23.5t34.5 -8t19 -28t-14.5 -35.5zM82 550q-55 0 -55 42q0 27 19.5 40.5t50.5 13.5q55 0 55 -41
q0 -55 -70 -55zM271 550q-55 0 -55 42q0 27 19.5 40.5t50.5 13.5q54 0 54 -41q0 -55 -69 -55z" />
    <glyph glyph-name="i.loclTRK" horiz-adv-x="255" 
d="M87 -8q-29 0 -42.5 19.5t-8.5 53.5l59 370q11 62 72 62q29 0 42.5 -19t8.5 -54l-59 -370q-11 -62 -72 -62zM183 593q-57 0 -57 49q0 35 20.5 55.5t56.5 20.5q57 0 57 -49q0 -35 -20.5 -55.5t-56.5 -20.5z" />
    <glyph glyph-name="uni1ECB" unicode="&#x1ecb;" horiz-adv-x="255" 
d="M183 589q-34 0 -50.5 16.5t-13.5 46.5q8 69 85 69q34 0 51 -16.5t13 -46.5q-9 -69 -85 -69zM87 -8q-29 0 -42.5 19.5t-8.5 53.5l59 370q11 62 72 62q29 0 42.5 -19t8.5 -54l-59 -370q-11 -62 -72 -62zM55 -209q-56 0 -56 50q0 35 20.5 55t55.5 20q57 0 57 -49
q0 -34 -20.5 -55t-56.5 -21z" />
    <glyph glyph-name="igrave" unicode="&#xec;" horiz-adv-x="255" 
d="M87 -8q-29 0 -42.5 19.5t-8.5 53.5l59 370q11 62 72 62q29 0 42.5 -19t8.5 -54l-59 -370q-11 -62 -72 -62zM127 564l-91 131q-17 24 -11 43.5t24.5 28.5t40 2.5t35.5 -33.5l70 -137q9 -17 4 -30.5t-17.5 -20.5t-27.5 -4t-27 20z" />
    <glyph glyph-name="uni1EC9" unicode="&#x1ec9;" horiz-adv-x="255" 
d="M87 -8q-29 0 -42.5 19.5t-8.5 53.5l59 370q11 62 72 62q29 0 42.5 -19t8.5 -54l-59 -370q-11 -62 -72 -62zM171 546q-17 0 -26.5 7.5t-7.5 20.5q3 22 14 36.5t23 25t21 20.5t9 23q0 23 -39 23q-10 0 -18.5 -1.5t-19.5 -3.5q-12 -3 -23.5 -0.5t-14.5 14.5q-8 29 22 40
q39 14 86 14q48 0 74.5 -17.5t26.5 -47.5q0 -28 -11.5 -44.5t-27.5 -28.5t-29.5 -25t-17.5 -34q-4 -22 -41 -22z" />
    <glyph glyph-name="uni020B" unicode="&#x20b;" horiz-adv-x="255" 
d="M87 -8q-29 0 -42.5 19.5t-8.5 53.5l59 370q11 62 72 62q29 0 42.5 -19t8.5 -54l-59 -370q-11 -62 -72 -62zM41 550q-17 2 -25 14.5t-3 33.5q18 72 64 112.5t109 40.5q66 0 107.5 -42.5t44.5 -116.5q2 -38 -32 -42q-16 -2 -27 5.5t-13 26.5q-4 46 -26 69.5t-58 23.5
q-35 0 -61.5 -24.5t-37.5 -69.5q-8 -34 -42 -31z" />
    <glyph glyph-name="imacron" unicode="&#x12b;" horiz-adv-x="255" 
d="M87 -8q-29 0 -42.5 19.5t-8.5 53.5l59 370q11 62 72 62q29 0 42.5 -19t8.5 -54l-59 -370q-11 -62 -72 -62zM67 616q-40 0 -40 31q0 20 12 31.5t33 11.5h247q40 0 40 -31q0 -19 -12 -31t-33 -12h-247z" />
    <glyph glyph-name="iogonek" unicode="&#x12f;" horiz-adv-x="255" 
d="M183 589q-34 0 -50.5 16.5t-13.5 46.5q8 69 85 69q34 0 51 -16.5t13 -46.5q-9 -69 -85 -69zM86 -195q-54 0 -80.5 26.5t-26.5 65.5t17.5 68t45.5 49q-10 19 -6 51l59 370q11 62 72 62q29 0 42.5 -19t8.5 -54l-59 -370q-6 -42 -41 -57q-60 -27 -60 -78q0 -21 14 -34
t37 -13q8 0 16 1t18 4q21 6 29.5 -7t4.5 -30.5t-21 -23.5q-31 -11 -70 -11z" />
    <glyph glyph-name="itilde" unicode="&#x129;" horiz-adv-x="255" 
d="M87 -8q-29 0 -42.5 19.5t-8.5 53.5l59 370q11 62 72 62q29 0 42.5 -19t8.5 -54l-59 -370q-11 -62 -72 -62zM20 582q-15 1 -22.5 11t-3.5 26q13 56 46 86.5t77 30.5q25 0 43 -10t33 -23t30 -23t34 -10q20 0 36.5 13t22.5 34q8 27 38 25q15 -1 22.5 -10.5t3.5 -26.5
q-13 -56 -46 -86.5t-77 -30.5q-25 0 -43.5 10t-33.5 23t-30 23t-33 10q-19 0 -36 -13t-23 -34q-8 -27 -38 -25z" />
    <glyph glyph-name="j" unicode="j" horiz-adv-x="259" 
d="M185 589q-34 0 -50.5 16.5t-13.5 46.5q8 69 85 69q34 0 51 -16.5t13 -46.5q-9 -69 -85 -69zM-64 -191q-25 -1 -37.5 12.5t-13 32t11 33t33.5 15.5q41 2 66.5 23.5t32.5 67.5l70 442q11 62 71 62q29 0 43 -19t9 -54l-66 -417q-10 -67 -35 -109t-69.5 -63.5t-115.5 -25.5z
" />
    <glyph glyph-name="uni0237" unicode="&#x237;" horiz-adv-x="259" 
d="M-64 -191q-25 -1 -37.5 12.5t-13 32t11 33t33.5 15.5q41 2 66.5 23.5t32.5 67.5l70 442q11 62 71 62q29 0 43 -19t9 -54l-66 -417q-10 -67 -35 -109t-69.5 -63.5t-115.5 -25.5z" />
    <glyph glyph-name="jcircumflex" unicode="&#x135;" horiz-adv-x="259" 
d="M-64 -191q-25 -1 -37.5 12.5t-13 32t11 33t33.5 15.5q41 2 66.5 23.5t32.5 67.5l70 442q11 62 71 62q29 0 43 -19t9 -54l-66 -417q-10 -67 -35 -109t-69.5 -63.5t-115.5 -25.5zM321 597q8 -17 2 -30t-18.5 -19.5t-26 -3.5t-21.5 18l-67 124l-95 -126q-13 -18 -32 -16.5
t-29 16.5t4 37l84 130q14 23 32.5 35t41.5 12q46 0 67 -46z" />
    <glyph glyph-name="k" unicode="k" horiz-adv-x="536" 
d="M88 -8q-29 0 -42.5 19t-8.5 53l93 589q9 60 72 60q29 0 42.5 -19.5t8.5 -54.5l-57 -358h2l195 179q20 19 35.5 28t37.5 9q25 0 36.5 -14t9 -34.5t-21.5 -38.5l-171 -161l134 -169q16 -20 14.5 -40.5t-15.5 -34t-38 -13.5q-26 0 -40.5 11.5t-34.5 35.5l-150 184h-2
l-27 -171q-9 -60 -72 -60z" />
    <glyph glyph-name="uni01E9" unicode="&#x1e9;" horiz-adv-x="536" 
d="M88 -8q-29 0 -42.5 19t-8.5 53l93 589q9 60 72 60q29 0 42.5 -19.5t8.5 -54.5l-57 -358h2l195 179q20 19 35.5 28t37.5 9q25 0 36.5 -14t9 -34.5t-21.5 -38.5l-171 -161l134 -169q16 -20 14.5 -40.5t-15.5 -34t-38 -13.5q-26 0 -40.5 11.5t-34.5 35.5l-150 184h-2
l-27 -171q-9 -60 -72 -60zM371 753q-24 0 -40.5 12t-30.5 34l-60 96q-10 17 -6 30t16.5 19.5t28 3t27.5 -19.5l72 -93l96 100q12 13 27 14t27 -6.5t15 -19.5t-8 -26l-83 -102q-33 -42 -81 -42z" />
    <glyph glyph-name="uni0137" unicode="&#x137;" horiz-adv-x="536" 
d="M88 -8q-29 0 -42.5 19t-8.5 53l93 589q9 60 72 60q29 0 42.5 -19.5t8.5 -54.5l-57 -358h2l195 179q20 19 35.5 28t37.5 9q25 0 36.5 -14t9 -34.5t-21.5 -38.5l-171 -161l134 -169q16 -20 14.5 -40.5t-15.5 -34t-38 -13.5q-26 0 -40.5 11.5t-34.5 35.5l-150 184h-2
l-27 -171q-9 -60 -72 -60zM228 -262q-16 -15 -32.5 -11.5t-21.5 18t12 31.5q17 18 24 40q-58 3 -58 51q0 32 20.5 49t53.5 17q61 0 61 -56q0 -36 -16.5 -75t-42.5 -64z" />
    <glyph glyph-name="kgreenlandic" unicode="&#x138;" horiz-adv-x="536" 
d="M92 -8q-66 0 -55 72l59 373q9 60 69 60q33 0 46 -19.5t8 -54.5l-23 -142h2l195 179q14 13 30.5 25t40.5 12q26 0 38.5 -14t10 -34.5t-22.5 -38.5l-171 -161l134 -169q17 -21 15.5 -41t-17 -33.5t-41.5 -13.5q-22 0 -36.5 11.5t-34.5 35.5l-150 184h-2l-27 -171
q-5 -31 -23 -45.5t-45 -14.5z" />
    <glyph glyph-name="l" unicode="l" horiz-adv-x="319" 
d="M197 -10q-83 0 -120 47.5t-23 138.5l76 475q9 62 72 62q29 0 42.5 -19t8.5 -54l-74 -463q-7 -44 7.5 -64.5t47.5 -20.5q11 0 18 1.5t13 1.5q10 0 16 -7t6 -27q0 -29 -12 -44.5t-29 -20.5q-9 -3 -23 -4.5t-26 -1.5z" />
    <glyph glyph-name="lacute" unicode="&#x13a;" horiz-adv-x="319" 
d="M197 -10q-83 0 -120 47.5t-23 138.5l76 475q9 62 72 62q29 0 42.5 -19t8.5 -54l-74 -463q-7 -44 7.5 -64.5t47.5 -20.5q11 0 18 1.5t13 1.5q10 0 16 -7t6 -27q0 -29 -12 -44.5t-29 -20.5q-9 -3 -23 -4.5t-26 -1.5zM261 771q-18 -18 -37 -13.5t-27 21.5t6 36l85 113
q17 22 37.5 24t36 -10t18.5 -30.5t-15 -36.5z" />
    <glyph glyph-name="lcaron" unicode="&#x13e;" horiz-adv-x="319" 
d="M197 -10q-83 0 -120 47.5t-23 138.5l76 475q9 62 72 62q29 0 42.5 -19t8.5 -54l-74 -463q-7 -44 7.5 -64.5t47.5 -20.5q11 0 18 1.5t13 1.5q10 0 16 -7t6 -27q0 -29 -12 -44.5t-29 -20.5q-9 -3 -23 -4.5t-26 -1.5zM300 506q-30 0 -24 34l22 135q6 38 45 38q21 0 30 -12.5
t2 -34.5l-39 -132q-8 -28 -36 -28z" />
    <glyph glyph-name="uni013C" unicode="&#x13c;" horiz-adv-x="319" 
d="M197 -10q-83 0 -120 47.5t-23 138.5l76 475q9 62 72 62q29 0 42.5 -19t8.5 -54l-74 -463q-7 -44 7.5 -64.5t47.5 -20.5q11 0 18 1.5t13 1.5q10 0 16 -7t6 -27q0 -29 -12 -44.5t-29 -20.5q-9 -3 -23 -4.5t-26 -1.5zM143 -262q-16 -15 -32.5 -11.5t-21.5 18t12 31.5
q17 18 24 40q-58 3 -58 51q0 32 20.5 49t53.5 17q61 0 61 -56q0 -36 -16.5 -75t-42.5 -64z" />
    <glyph glyph-name="ldot" unicode="&#x140;" horiz-adv-x="386" 
d="M197 -10q-83 0 -120 47.5t-23 138.5l76 475q9 62 72 62q29 0 42.5 -19t8.5 -54l-74 -463q-7 -44 7.5 -64.5t47.5 -20.5q11 0 18 1.5t13 1.5q10 0 16 -7t6 -27q0 -29 -12 -44.5t-29 -20.5q-9 -3 -23 -4.5t-26 -1.5zM340 278q-34 0 -54.5 21t-20.5 53q0 33 20.5 53.5
t54.5 20.5q35 0 54.5 -20.5t19.5 -53.5q0 -32 -19.5 -53t-54.5 -21z" />
    <glyph glyph-name="uni1E37" unicode="&#x1e37;" horiz-adv-x="319" 
d="M197 -10q-83 0 -120 47.5t-23 138.5l76 475q9 62 72 62q29 0 42.5 -19t8.5 -54l-74 -463q-7 -44 7.5 -64.5t47.5 -20.5q11 0 18 1.5t13 1.5q10 0 16 -7t6 -27q0 -29 -12 -44.5t-29 -20.5q-9 -3 -23 -4.5t-26 -1.5zM122 -209q-56 0 -56 50q0 35 20.5 55t55.5 20
q57 0 57 -49q0 -34 -20.5 -55t-56.5 -21z" />
    <glyph glyph-name="uni01C9" unicode="&#x1c9;" horiz-adv-x="578" 
d="M197 -10q-83 0 -120 47.5t-23 138.5l76 475q9 62 72 62q29 0 42.5 -19t8.5 -54l-74 -463q-7 -44 7.5 -64.5t47.5 -20.5q11 0 18 1.5t13 1.5q10 0 16 -7t6 -27q0 -29 -12 -44.5t-29 -20.5q-9 -3 -23 -4.5t-26 -1.5zM504 589q-34 0 -50.5 16.5t-13.5 46.5q8 69 85 69
q34 0 51 -16.5t13 -46.5q-9 -69 -85 -69zM255 -191q-25 -1 -37.5 12.5t-13 32t11 33t33.5 15.5q41 2 66.5 23.5t32.5 67.5l70 442q11 62 71 62q29 0 43 -19t9 -54l-66 -417q-10 -67 -35 -109t-69.5 -63.5t-115.5 -25.5z" />
    <glyph glyph-name="uni1E3B" unicode="&#x1e3b;" horiz-adv-x="319" 
d="M197 -10q-83 0 -120 47.5t-23 138.5l76 475q9 62 72 62q29 0 42.5 -19t8.5 -54l-74 -463q-7 -44 7.5 -64.5t47.5 -20.5q11 0 18 1.5t13 1.5q10 0 16 -7t6 -27q0 -29 -12 -44.5t-29 -20.5q-9 -3 -23 -4.5t-26 -1.5zM11 -165q-40 0 -40 31q0 20 12 31.5t32 11.5h247
q40 0 40 -31q0 -19 -12 -31t-32 -12h-247z" />
    <glyph glyph-name="lslash" unicode="&#x142;" horiz-adv-x="319" 
d="M197 -10q-83 0 -120 47.5t-23 138.5l76 475q9 62 72 62q29 0 42.5 -19t8.5 -54l-74 -463q-7 -44 7.5 -64.5t47.5 -20.5q11 0 18 1.5t13 1.5q10 0 16 -7t6 -27q0 -29 -12 -44.5t-29 -20.5q-9 -3 -23 -4.5t-26 -1.5zM49 251q-24 -11 -42.5 -3.5t-27 24.5t-3 36t29.5 31
l258 124q24 11 42 3.5t27 -24.5t3 -36t-30 -31z" />
    <glyph glyph-name="m" unicode="m" horiz-adv-x="877" 
d="M89 -8q-29 0 -42.5 18.5t-8.5 52.5l60 374q9 60 69 60q29 0 42.5 -18.5t8.5 -51.5l-2 -14q28 44 69 65t87 21q104 0 135 -96q54 96 171 96q77 0 117.5 -50t23.5 -157l-38 -240q-9 -60 -69 -60q-31 0 -45 18.5t-9 52.5l36 231q17 107 -65 107q-49 0 -81 -36.5t-43 -101.5
l-33 -211q-9 -60 -71 -60q-30 0 -44 18.5t-9 52.5l37 231q17 107 -65 107q-49 0 -81.5 -36.5t-43.5 -101.5l-33 -211q-9 -60 -73 -60z" />
    <glyph glyph-name="uni1E43" unicode="&#x1e43;" horiz-adv-x="877" 
d="M89 -8q-29 0 -42.5 18.5t-8.5 52.5l60 374q9 60 69 60q29 0 42.5 -18.5t8.5 -51.5l-2 -14q28 44 69 65t87 21q104 0 135 -96q54 96 171 96q77 0 117.5 -50t23.5 -157l-38 -240q-9 -60 -69 -60q-31 0 -45 18.5t-9 52.5l36 231q17 107 -65 107q-49 0 -81 -36.5t-43 -101.5
l-33 -211q-9 -60 -71 -60q-30 0 -44 18.5t-9 52.5l37 231q17 107 -65 107q-49 0 -81.5 -36.5t-43.5 -101.5l-33 -211q-9 -60 -73 -60zM367 -209q-56 0 -56 50q0 35 20.5 55t55.5 20q57 0 57 -49q0 -34 -20.5 -55t-56.5 -21z" />
    <glyph glyph-name="n" unicode="n" horiz-adv-x="585" 
d="M88 -7q-29 0 -42.5 19.5t-8.5 53.5l58 369q9 62 72 62q28 0 41 -17t8 -51l-3 -18q55 88 170 88q80 0 122 -49.5t25 -156.5l-37 -238q-9 -62 -72 -62q-29 0 -43 19.5t-9 53.5l36 225q18 110 -72 110q-59 0 -94.5 -37t-45.5 -101l-33 -208q-9 -62 -72 -62z" />
    <glyph glyph-name="nacute" unicode="&#x144;" horiz-adv-x="585" 
d="M88 -7q-29 0 -42.5 19.5t-8.5 53.5l58 369q9 62 72 62q28 0 41 -17t8 -51l-3 -18q55 88 170 88q80 0 122 -49.5t25 -156.5l-37 -238q-9 -62 -72 -62q-29 0 -43 19.5t-9 53.5l36 225q18 110 -72 110q-59 0 -94.5 -37t-45.5 -101l-33 -208q-9 -62 -72 -62zM385 559
q-16 -19 -35 -16t-27.5 20t5.5 38l96 147q15 23 35.5 25.5t36.5 -8.5t20 -30t-13 -39z" />
    <glyph glyph-name="napostrophe" unicode="&#x149;" horiz-adv-x="585" 
d="M123 580q-16 -15 -32 -12t-21 17.5t11 32.5q8 9 14 19.5t9 20.5q-57 3 -57 51q0 32 20.5 49.5t53.5 17.5q61 0 61 -57q0 -35 -16.5 -75t-42.5 -64zM88 -7q-29 0 -42.5 19.5t-8.5 53.5l58 369q9 62 72 62q28 0 41 -17t8 -51l-3 -18q55 88 170 88q80 0 122 -49.5t25 -156.5
l-37 -238q-9 -62 -72 -62q-29 0 -43 19.5t-9 53.5l36 225q18 110 -72 110q-59 0 -94.5 -37t-45.5 -101l-33 -208q-9 -62 -72 -62z" />
    <glyph glyph-name="ncaron" unicode="&#x148;" horiz-adv-x="585" 
d="M88 -7q-29 0 -42.5 19.5t-8.5 53.5l58 369q9 62 72 62q28 0 41 -17t8 -51l-3 -18q55 88 170 88q80 0 122 -49.5t25 -156.5l-37 -238q-9 -62 -72 -62q-29 0 -43 19.5t-9 53.5l36 225q18 110 -72 110q-59 0 -94.5 -37t-45.5 -101l-33 -208q-9 -62 -72 -62zM337 539
q-48 0 -67 46l-57 132q-7 17 -1.5 30t18 19t26.5 2.5t22 -18.5l66 -125l97 127q15 19 33.5 17.5t28 -16.5t-4.5 -37l-84 -129q-31 -48 -77 -48z" />
    <glyph glyph-name="uni0146" unicode="&#x146;" horiz-adv-x="585" 
d="M88 -7q-29 0 -42.5 19.5t-8.5 53.5l58 369q9 62 72 62q28 0 41 -17t8 -51l-3 -18q55 88 170 88q80 0 122 -49.5t25 -156.5l-37 -238q-9 -62 -72 -62q-29 0 -43 19.5t-9 53.5l36 225q18 110 -72 110q-59 0 -94.5 -37t-45.5 -101l-33 -208q-9 -62 -72 -62zM245 -262
q-16 -15 -32.5 -11.5t-21.5 18t12 31.5q17 18 24 40q-58 3 -58 51q0 32 20.5 49t53.5 17q61 0 61 -56q0 -36 -16.5 -75t-42.5 -64z" />
    <glyph glyph-name="uni1E45" unicode="&#x1e45;" horiz-adv-x="585" 
d="M88 -7q-29 0 -42.5 19.5t-8.5 53.5l58 369q9 62 72 62q28 0 41 -17t8 -51l-3 -18q55 88 170 88q80 0 122 -49.5t25 -156.5l-37 -238q-9 -62 -72 -62q-29 0 -43 19.5t-9 53.5l36 225q18 110 -72 110q-59 0 -94.5 -37t-45.5 -101l-33 -208q-9 -62 -72 -62zM345 593
q-57 0 -57 49q0 35 20.5 55.5t56.5 20.5q57 0 57 -49q0 -35 -20.5 -55.5t-56.5 -20.5z" />
    <glyph glyph-name="uni1E47" unicode="&#x1e47;" horiz-adv-x="585" 
d="M88 -7q-29 0 -42.5 19.5t-8.5 53.5l58 369q9 62 72 62q28 0 41 -17t8 -51l-3 -18q55 88 170 88q80 0 122 -49.5t25 -156.5l-37 -238q-9 -62 -72 -62q-29 0 -43 19.5t-9 53.5l36 225q18 110 -72 110q-59 0 -94.5 -37t-45.5 -101l-33 -208q-9 -62 -72 -62zM224 -209
q-56 0 -56 50q0 35 20.5 55t55.5 20q57 0 57 -49q0 -34 -20.5 -55t-56.5 -21z" />
    <glyph glyph-name="eng" unicode="&#x14b;" horiz-adv-x="585" 
d="M266 -190q-25 -1 -37.5 11.5t-13 30.5t10.5 33t33 17q41 4 66.5 24.5t32.5 66.5l47 298q18 110 -72 110q-59 0 -94.5 -37t-45.5 -101l-33 -208q-9 -62 -72 -62q-29 0 -42.5 19.5t-8.5 53.5l58 369q9 62 72 62q28 0 41 -17t8 -50l-3 -20q55 89 170 89q80 0 122 -49.5
t25 -156.5l-45 -286q-16 -100 -66.5 -145.5t-152.5 -51.5z" />
    <glyph glyph-name="uni01CC" unicode="&#x1cc;" horiz-adv-x="844" 
d="M88 -7q-29 0 -42.5 19.5t-8.5 53.5l58 369q9 62 72 62q28 0 41 -17t8 -51l-3 -18q55 88 170 88q80 0 122 -49.5t25 -156.5l-37 -238q-9 -62 -72 -62q-29 0 -43 19.5t-9 53.5l36 225q18 110 -72 110q-59 0 -94.5 -37t-45.5 -101l-33 -208q-9 -62 -72 -62zM770 589
q-34 0 -50.5 16.5t-13.5 46.5q8 69 85 69q34 0 51 -16.5t13 -46.5q-9 -69 -85 -69zM521 -191q-25 -1 -37.5 12.5t-13 32t11 33t33.5 15.5q41 2 66.5 23.5t32.5 67.5l70 442q11 62 71 62q29 0 43 -19t9 -54l-66 -417q-10 -67 -35 -109t-69.5 -63.5t-115.5 -25.5z" />
    <glyph glyph-name="uni1E49" unicode="&#x1e49;" horiz-adv-x="585" 
d="M88 -7q-29 0 -42.5 19.5t-8.5 53.5l58 369q9 62 72 62q28 0 41 -17t8 -51l-3 -18q55 88 170 88q80 0 122 -49.5t25 -156.5l-37 -238q-9 -62 -72 -62q-29 0 -43 19.5t-9 53.5l36 225q18 110 -72 110q-59 0 -94.5 -37t-45.5 -101l-33 -208q-9 -62 -72 -62zM113 -165
q-40 0 -40 31q0 20 12 31.5t32 11.5h247q40 0 40 -31q0 -19 -12 -31t-32 -12h-247z" />
    <glyph glyph-name="ntilde" unicode="&#xf1;" horiz-adv-x="585" 
d="M88 -7q-29 0 -42.5 19.5t-8.5 53.5l58 369q9 62 72 62q28 0 41 -17t8 -51l-3 -18q55 88 170 88q80 0 122 -49.5t25 -156.5l-37 -238q-9 -62 -72 -62q-29 0 -43 19.5t-9 53.5l36 225q18 110 -72 110q-59 0 -94.5 -37t-45.5 -101l-33 -208q-9 -62 -72 -62zM182 582
q-15 1 -22.5 11t-3.5 26q13 56 46 86.5t77 30.5q25 0 43 -10t33 -23t30 -23t34 -10q20 0 36.5 13t22.5 34q8 27 38 25q15 -1 22.5 -10.5t3.5 -26.5q-13 -56 -46 -86.5t-77 -30.5q-25 0 -43.5 10t-33.5 23t-30 23t-33 10q-19 0 -36 -13t-23 -34q-8 -27 -38 -25z" />
    <glyph glyph-name="o" unicode="o" horiz-adv-x="576" 
d="M267 -10q-108 0 -169 60t-61 161q0 88 36.5 152.5t98.5 100t137 35.5q108 0 169 -60t61 -161q0 -88 -36.5 -152.5t-98 -100t-137.5 -35.5zM270 85q46 0 77.5 26t48.5 71t17 100q0 59 -28.5 90.5t-78.5 31.5q-45 0 -77 -26t-49 -70.5t-17 -100.5q0 -59 28.5 -90.5
t78.5 -31.5z" />
    <glyph glyph-name="oacute" unicode="&#xf3;" horiz-adv-x="576" 
d="M267 -10q-108 0 -169 60t-61 161q0 88 36.5 152.5t98.5 100t137 35.5q108 0 169 -60t61 -161q0 -88 -36.5 -152.5t-98 -100t-137.5 -35.5zM270 85q46 0 77.5 26t48.5 71t17 100q0 59 -28.5 90.5t-78.5 31.5q-45 0 -77 -26t-49 -70.5t-17 -100.5q0 -59 28.5 -90.5
t78.5 -31.5zM385 559q-16 -19 -35 -16t-27.5 20t5.5 38l96 147q15 23 35.5 25.5t36.5 -8.5t20 -30t-13 -39z" />
    <glyph glyph-name="obreve" unicode="&#x14f;" horiz-adv-x="576" 
d="M267 -10q-108 0 -169 60t-61 161q0 88 36.5 152.5t98.5 100t137 35.5q108 0 169 -60t61 -161q0 -88 -36.5 -152.5t-98 -100t-137.5 -35.5zM270 85q46 0 77.5 26t48.5 71t17 100q0 59 -28.5 90.5t-78.5 31.5q-45 0 -77 -26t-49 -70.5t-17 -100.5q0 -59 28.5 -90.5
t78.5 -31.5zM348 551q-66 0 -106.5 43t-45.5 116q-2 38 32 42q17 2 28.5 -5.5t12.5 -26.5q3 -46 25 -69.5t58 -23.5q35 0 62 24.5t37 69.5q8 34 42 31q17 -1 25 -14t3 -34q-18 -72 -64 -112.5t-109 -40.5z" />
    <glyph glyph-name="ocircumflex" unicode="&#xf4;" horiz-adv-x="576" 
d="M267 -10q-108 0 -169 60t-61 161q0 88 36.5 152.5t98.5 100t137 35.5q108 0 169 -60t61 -161q0 -88 -36.5 -152.5t-98 -100t-137.5 -35.5zM270 85q46 0 77.5 26t48.5 71t17 100q0 59 -28.5 90.5t-78.5 31.5q-45 0 -77 -26t-49 -70.5t-17 -100.5q0 -59 28.5 -90.5
t78.5 -31.5zM481 597q8 -17 2 -30t-18.5 -19.5t-26 -3.5t-21.5 18l-67 124l-95 -126q-13 -18 -32 -16.5t-29 16.5t4 37l84 130q14 23 32.5 35t41.5 12q46 0 67 -46z" />
    <glyph glyph-name="uni1ED1" unicode="&#x1ed1;" horiz-adv-x="576" 
d="M267 -10q-108 0 -169 60t-61 161q0 88 36.5 152.5t98.5 100t137 35.5q108 0 169 -60t61 -161q0 -88 -36.5 -152.5t-98 -100t-137.5 -35.5zM270 85q46 0 77.5 26t48.5 71t17 100q0 59 -28.5 90.5t-78.5 31.5q-45 0 -77 -26t-49 -70.5t-17 -100.5q0 -59 28.5 -90.5
t78.5 -31.5zM516 654q-13 -15 -29 -13t-23.5 15t3.5 31l74 115q12 18 28.5 20t30 -7.5t17 -25t-11.5 -32.5zM247 555q-16 -16 -32.5 -11.5t-23.5 19t4 28.5l72 93q15 19 35 29.5t47 10.5q33 0 49 -14t26 -32l51 -87q11 -18 1 -32t-28.5 -16t-32.5 15l-74 91z" />
    <glyph glyph-name="uni1ED9" unicode="&#x1ed9;" horiz-adv-x="576" 
d="M267 -10q-108 0 -169 60t-61 161q0 88 36.5 152.5t98.5 100t137 35.5q108 0 169 -60t61 -161q0 -88 -36.5 -152.5t-98 -100t-137.5 -35.5zM270 85q46 0 77.5 26t48.5 71t17 100q0 59 -28.5 90.5t-78.5 31.5q-45 0 -77 -26t-49 -70.5t-17 -100.5q0 -59 28.5 -90.5
t78.5 -31.5zM222 -209q-56 0 -56 50q0 35 20.5 55t55.5 20q57 0 57 -49q0 -34 -20.5 -55t-56.5 -21zM481 597q8 -17 2 -30t-18.5 -19.5t-26 -3.5t-21.5 18l-67 124l-95 -126q-13 -18 -32 -16.5t-29 16.5t4 37l84 130q14 23 32.5 35t41.5 12q46 0 67 -46z" />
    <glyph glyph-name="uni1ED3" unicode="&#x1ed3;" horiz-adv-x="576" 
d="M267 -10q-108 0 -169 60t-61 161q0 88 36.5 152.5t98.5 100t137 35.5q108 0 169 -60t61 -161q0 -88 -36.5 -152.5t-98 -100t-137.5 -35.5zM270 85q46 0 77.5 26t48.5 71t17 100q0 59 -28.5 90.5t-78.5 31.5q-45 0 -77 -26t-49 -70.5t-17 -100.5q0 -59 28.5 -90.5
t78.5 -31.5zM494 656l-73 105q-12 17 -5.5 32.5t22 23.5t32.5 5t26 -23l54 -112q10 -19 0 -32t-27 -14t-29 15zM249 555q-16 -16 -32.5 -11.5t-23.5 19t4 28.5l72 93q15 19 35 29.5t47 10.5q33 0 49 -14t26 -32l51 -87q11 -18 1 -32t-28.5 -16t-32.5 15l-74 91z" />
    <glyph glyph-name="uni1ED5" unicode="&#x1ed5;" horiz-adv-x="576" 
d="M267 -10q-108 0 -169 60t-61 161q0 88 36.5 152.5t98.5 100t137 35.5q108 0 169 -60t61 -161q0 -88 -36.5 -152.5t-98 -100t-137.5 -35.5zM270 85q46 0 77.5 26t48.5 71t17 100q0 59 -28.5 90.5t-78.5 31.5q-45 0 -77 -26t-49 -70.5t-17 -100.5q0 -59 28.5 -90.5
t78.5 -31.5zM512 658q-17 -8 -32.5 -4.5t-19.5 14t11 20.5q20 14 31.5 25.5t11.5 24.5q0 11 -9 16.5t-23 5.5q-9 0 -19 -1t-20 -3q-13 -2 -22 0.5t-12 14.5q-6 24 20 33q17 5 36 7.5t40 2.5q47 0 69.5 -15.5t22.5 -41.5q0 -21 -13 -40t-32.5 -34t-39.5 -25zM249 555
q-16 -16 -32.5 -11.5t-23.5 19t4 28.5l72 93q15 19 35 29.5t47 10.5q33 0 49 -14t26 -32l51 -87q11 -18 1 -32t-28.5 -16t-32.5 15l-74 91z" />
    <glyph glyph-name="uni1ED7" unicode="&#x1ed7;" horiz-adv-x="576" 
d="M267 -10q-108 0 -169 60t-61 161q0 88 36.5 152.5t98.5 100t137 35.5q108 0 169 -60t61 -161q0 -88 -36.5 -152.5t-98 -100t-137.5 -35.5zM270 85q46 0 77.5 26t48.5 71t17 100q0 59 -28.5 90.5t-78.5 31.5q-45 0 -77 -26t-49 -70.5t-17 -100.5q0 -59 28.5 -90.5
t78.5 -31.5zM211 708q-14 1 -21 11.5t-1 27.5q26 75 103 75q26 0 48 -11t41.5 -22t37.5 -11q16 0 29 6t19 21q8 22 35 21q14 -1 21 -11.5t1 -27.5q-26 -75 -103 -75q-26 0 -48.5 11t-41.5 22t-37 11q-16 0 -29 -6t-19 -21q-8 -22 -35 -21zM243 552q-18 -13 -32.5 -9
t-19 17.5t8.5 27.5l69 75q14 15 32 27.5t49 12.5q32 0 45.5 -14.5t26.5 -31.5l54 -72q12 -15 4 -27.5t-25 -14.5t-34 12l-80 71z" />
    <glyph glyph-name="uni020D" unicode="&#x20d;" horiz-adv-x="576" 
d="M267 -10q-108 0 -169 60t-61 161q0 88 36.5 152.5t98.5 100t137 35.5q108 0 169 -60t61 -161q0 -88 -36.5 -152.5t-98 -100t-137.5 -35.5zM270 85q46 0 77.5 26t48.5 71t17 100q0 59 -28.5 90.5t-78.5 31.5q-45 0 -77 -26t-49 -70.5t-17 -100.5q0 -59 28.5 -90.5
t78.5 -31.5zM377 569l-50 144q-9 25 2.5 41t31 20t37.5 -5.5t22 -36.5l24 -149q4 -22 -10.5 -32t-32 -6t-24.5 24zM229 569l-50 144q-9 25 2.5 41t31 20t37.5 -5.5t22 -36.5l24 -149q4 -22 -10.5 -32t-32 -6t-24.5 24z" />
    <glyph glyph-name="odieresis" unicode="&#xf6;" horiz-adv-x="576" 
d="M267 -10q-108 0 -169 60t-61 161q0 88 36.5 152.5t98.5 100t137 35.5q108 0 169 -60t61 -161q0 -88 -36.5 -152.5t-98 -100t-137.5 -35.5zM270 85q46 0 77.5 26t48.5 71t17 100q0 59 -28.5 90.5t-78.5 31.5q-45 0 -77 -26t-49 -70.5t-17 -100.5q0 -59 28.5 -90.5
t78.5 -31.5zM441 593q-53 0 -53 48q0 34 19 54.5t53 20.5q53 0 53 -48q0 -34 -18.5 -54.5t-53.5 -20.5zM252 593q-54 0 -54 48q0 34 19 54.5t53 20.5q54 0 54 -48q0 -34 -18.5 -54.5t-53.5 -20.5z" />
    <glyph glyph-name="uni022B" unicode="&#x22b;" horiz-adv-x="576" 
d="M267 -10q-108 0 -169 60t-61 161q0 88 36.5 152.5t98.5 100t137 35.5q108 0 169 -60t61 -161q0 -88 -36.5 -152.5t-98 -100t-137.5 -35.5zM270 85q46 0 77.5 26t48.5 71t17 100q0 59 -28.5 90.5t-78.5 31.5q-45 0 -77 -26t-49 -70.5t-17 -100.5q0 -59 28.5 -90.5
t78.5 -31.5zM247 708q-40 0 -40 31q0 20 11.5 31.5t33.5 11.5h239q41 0 41 -31q0 -19 -11.5 -31t-33.5 -12h-240zM247 567q-55 0 -55 42q0 28 19.5 41.5t50.5 13.5q55 0 55 -42q0 -25 -18 -40t-52 -15zM436 567q-55 0 -55 42q0 28 19.5 41.5t50.5 13.5q54 0 54 -42
q0 -25 -18 -40t-51 -15z" />
    <glyph glyph-name="uni0231" unicode="&#x231;" horiz-adv-x="576" 
d="M267 -10q-108 0 -169 60t-61 161q0 88 36.5 152.5t98.5 100t137 35.5q108 0 169 -60t61 -161q0 -88 -36.5 -152.5t-98 -100t-137.5 -35.5zM270 85q46 0 77.5 26t48.5 71t17 100q0 59 -28.5 90.5t-78.5 31.5q-45 0 -77 -26t-49 -70.5t-17 -100.5q0 -59 28.5 -90.5
t78.5 -31.5zM242 708q-40 0 -40 31q0 20 11.5 31.5t33.5 11.5h239q41 0 41 -31q0 -19 -11.5 -31t-33.5 -12h-240zM337 567q-55 0 -55 42q0 28 19.5 41.5t50.5 13.5q54 0 54 -42q0 -25 -18 -40t-51 -15z" />
    <glyph glyph-name="uni1ECD" unicode="&#x1ecd;" horiz-adv-x="576" 
d="M267 -10q-108 0 -169 60t-61 161q0 88 36.5 152.5t98.5 100t137 35.5q108 0 169 -60t61 -161q0 -88 -36.5 -152.5t-98 -100t-137.5 -35.5zM270 85q46 0 77.5 26t48.5 71t17 100q0 59 -28.5 90.5t-78.5 31.5q-45 0 -77 -26t-49 -70.5t-17 -100.5q0 -59 28.5 -90.5
t78.5 -31.5zM222 -209q-56 0 -56 50q0 35 20.5 55t55.5 20q57 0 57 -49q0 -34 -20.5 -55t-56.5 -21z" />
    <glyph glyph-name="ograve" unicode="&#xf2;" horiz-adv-x="576" 
d="M267 -10q-108 0 -169 60t-61 161q0 88 36.5 152.5t98.5 100t137 35.5q108 0 169 -60t61 -161q0 -88 -36.5 -152.5t-98 -100t-137.5 -35.5zM270 85q46 0 77.5 26t48.5 71t17 100q0 59 -28.5 90.5t-78.5 31.5q-45 0 -77 -26t-49 -70.5t-17 -100.5q0 -59 28.5 -90.5
t78.5 -31.5zM289 564l-91 131q-17 24 -11 43.5t24.5 28.5t40 2.5t35.5 -33.5l70 -137q9 -17 4 -30.5t-17.5 -20.5t-27.5 -4t-27 20z" />
    <glyph glyph-name="uni1ECF" unicode="&#x1ecf;" horiz-adv-x="576" 
d="M267 -10q-108 0 -169 60t-61 161q0 88 36.5 152.5t98.5 100t137 35.5q108 0 169 -60t61 -161q0 -88 -36.5 -152.5t-98 -100t-137.5 -35.5zM270 85q46 0 77.5 26t48.5 71t17 100q0 59 -28.5 90.5t-78.5 31.5q-45 0 -77 -26t-49 -70.5t-17 -100.5q0 -59 28.5 -90.5
t78.5 -31.5zM333 546q-17 0 -26.5 7.5t-7.5 20.5q3 22 14 36.5t23 25t21 20.5t9 23q0 23 -39 23q-10 0 -18.5 -1.5t-19.5 -3.5q-12 -3 -23.5 -0.5t-14.5 14.5q-8 29 22 40q39 14 86 14q48 0 74.5 -17.5t26.5 -47.5q0 -28 -11.5 -44.5t-27.5 -28.5t-29.5 -25t-17.5 -34
q-4 -22 -41 -22z" />
    <glyph glyph-name="ohorn" unicode="&#x1a1;" horiz-adv-x="576" 
d="M267 -10q-108 0 -169 60t-61 161q0 88 36.5 152.5t98.5 100t137 35.5q108 0 169 -60t61 -161q0 -88 -36.5 -152.5t-98 -100t-137.5 -35.5zM270 85q46 0 77.5 26t48.5 71t17 100q0 59 -28.5 90.5t-78.5 31.5q-45 0 -77 -26t-49 -70.5t-17 -100.5q0 -59 28.5 -90.5
t78.5 -31.5zM443 425l-68 45l3 19q42 1 63.5 13.5t31.5 34t15 47.5q7 40 59 40q26 0 39.5 -11t10.5 -32q-9 -64 -47.5 -107t-106.5 -49z" />
    <glyph glyph-name="uni1EDB" unicode="&#x1edb;" horiz-adv-x="576" 
d="M267 -10q-108 0 -169 60t-61 161q0 88 36.5 152.5t98.5 100t137 35.5q108 0 169 -60t61 -161q0 -88 -36.5 -152.5t-98 -100t-137.5 -35.5zM270 85q46 0 77.5 26t48.5 71t17 100q0 59 -28.5 90.5t-78.5 31.5q-45 0 -77 -26t-49 -70.5t-17 -100.5q0 -59 28.5 -90.5
t78.5 -31.5zM443 425l-68 45l3 19q42 1 63.5 13.5t31.5 34t15 47.5q7 40 59 40q26 0 39.5 -11t10.5 -32q-9 -64 -47.5 -107t-106.5 -49zM363 559q-16 -19 -35 -16t-27.5 20t5.5 38l96 147q15 23 35.5 25.5t36.5 -8.5t20 -30t-13 -39z" />
    <glyph glyph-name="uni1EE3" unicode="&#x1ee3;" horiz-adv-x="576" 
d="M267 -10q-108 0 -169 60t-61 161q0 88 36.5 152.5t98.5 100t137 35.5q108 0 169 -60t61 -161q0 -88 -36.5 -152.5t-98 -100t-137.5 -35.5zM270 85q46 0 77.5 26t48.5 71t17 100q0 59 -28.5 90.5t-78.5 31.5q-45 0 -77 -26t-49 -70.5t-17 -100.5q0 -59 28.5 -90.5
t78.5 -31.5zM443 425l-68 45l3 19q42 1 63.5 13.5t31.5 34t15 47.5q7 40 59 40q26 0 39.5 -11t10.5 -32q-9 -64 -47.5 -107t-106.5 -49zM222 -209q-56 0 -56 50q0 35 20.5 55t55.5 20q57 0 57 -49q0 -34 -20.5 -55t-56.5 -21z" />
    <glyph glyph-name="uni1EDD" unicode="&#x1edd;" horiz-adv-x="576" 
d="M267 -10q-108 0 -169 60t-61 161q0 88 36.5 152.5t98.5 100t137 35.5q108 0 169 -60t61 -161q0 -88 -36.5 -152.5t-98 -100t-137.5 -35.5zM270 85q46 0 77.5 26t48.5 71t17 100q0 59 -28.5 90.5t-78.5 31.5q-45 0 -77 -26t-49 -70.5t-17 -100.5q0 -59 28.5 -90.5
t78.5 -31.5zM443 425l-68 45l3 19q42 1 63.5 13.5t31.5 34t15 47.5q7 40 59 40q26 0 39.5 -11t10.5 -32q-9 -64 -47.5 -107t-106.5 -49zM267 564l-91 131q-17 24 -11 43.5t24.5 28.5t40 2.5t35.5 -33.5l70 -137q9 -17 4 -30.5t-17.5 -20.5t-27.5 -4t-27 20z" />
    <glyph glyph-name="uni1EDF" unicode="&#x1edf;" horiz-adv-x="576" 
d="M267 -10q-108 0 -169 60t-61 161q0 88 36.5 152.5t98.5 100t137 35.5q108 0 169 -60t61 -161q0 -88 -36.5 -152.5t-98 -100t-137.5 -35.5zM270 85q46 0 77.5 26t48.5 71t17 100q0 59 -28.5 90.5t-78.5 31.5q-45 0 -77 -26t-49 -70.5t-17 -100.5q0 -59 28.5 -90.5
t78.5 -31.5zM443 425l-68 45l3 19q42 1 63.5 13.5t31.5 34t15 47.5q7 40 59 40q26 0 39.5 -11t10.5 -32q-9 -64 -47.5 -107t-106.5 -49zM311 546q-17 0 -26.5 7.5t-7.5 20.5q3 22 14 36.5t23 25t21 20.5t9 23q0 23 -39 23q-10 0 -18.5 -1.5t-19.5 -3.5q-12 -3 -23.5 -0.5
t-14.5 14.5q-8 29 22 40q39 14 86 14q48 0 74.5 -17.5t26.5 -47.5q0 -28 -11.5 -44.5t-27.5 -28.5t-29.5 -25t-17.5 -34q-4 -22 -41 -22z" />
    <glyph glyph-name="uni1EE1" unicode="&#x1ee1;" horiz-adv-x="576" 
d="M267 -10q-108 0 -169 60t-61 161q0 88 36.5 152.5t98.5 100t137 35.5q108 0 169 -60t61 -161q0 -88 -36.5 -152.5t-98 -100t-137.5 -35.5zM270 85q46 0 77.5 26t48.5 71t17 100q0 59 -28.5 90.5t-78.5 31.5q-45 0 -77 -26t-49 -70.5t-17 -100.5q0 -59 28.5 -90.5
t78.5 -31.5zM443 425l-68 45l3 19q42 1 63.5 13.5t31.5 34t15 47.5q7 40 59 40q26 0 39.5 -11t10.5 -32q-9 -64 -47.5 -107t-106.5 -49zM164 582q-14 1 -20.5 12t-2.5 29q15 56 44.5 84.5t68.5 28.5q25 0 43.5 -10t34 -23t30 -23t31.5 -10q18 0 32.5 11.5t21.5 32.5
q10 29 41 28q14 -1 21 -12t2 -29q-14 -55 -44 -84t-69 -29q-25 0 -44 10t-34 23t-29.5 23t-31.5 10q-18 0 -32.5 -11.5t-21.5 -32.5q-10 -29 -41 -28z" />
    <glyph glyph-name="ohungarumlaut" unicode="&#x151;" horiz-adv-x="576" 
d="M267 -10q-108 0 -169 60t-61 161q0 88 36.5 152.5t98.5 100t137 35.5q108 0 169 -60t61 -161q0 -88 -36.5 -152.5t-98 -100t-137.5 -35.5zM270 85q46 0 77.5 26t48.5 71t17 100q0 59 -28.5 90.5t-78.5 31.5q-45 0 -77 -26t-49 -70.5t-17 -100.5q0 -59 28.5 -90.5
t78.5 -31.5zM451 565q-10 -19 -27.5 -21t-29 10.5t-4.5 33.5l50 150q8 25 26.5 32.5t36.5 1t26.5 -23t-3.5 -39.5zM302 565q-10 -19 -27.5 -21t-29 10.5t-4.5 33.5l51 150q9 25 27.5 32.5t36.5 1t26 -23t-4 -39.5z" />
    <glyph glyph-name="uni020F" unicode="&#x20f;" horiz-adv-x="576" 
d="M267 -10q-108 0 -169 60t-61 161q0 88 36.5 152.5t98.5 100t137 35.5q108 0 169 -60t61 -161q0 -88 -36.5 -152.5t-98 -100t-137.5 -35.5zM270 85q46 0 77.5 26t48.5 71t17 100q0 59 -28.5 90.5t-78.5 31.5q-45 0 -77 -26t-49 -70.5t-17 -100.5q0 -59 28.5 -90.5
t78.5 -31.5zM203 550q-17 2 -25 14.5t-3 33.5q18 72 64 112.5t109 40.5q66 0 107.5 -42.5t44.5 -116.5q2 -38 -32 -42q-16 -2 -27 5.5t-13 26.5q-4 46 -26 69.5t-58 23.5q-35 0 -61.5 -24.5t-37.5 -69.5q-8 -34 -42 -31z" />
    <glyph glyph-name="omacron" unicode="&#x14d;" horiz-adv-x="576" 
d="M267 -10q-108 0 -169 60t-61 161q0 88 36.5 152.5t98.5 100t137 35.5q108 0 169 -60t61 -161q0 -88 -36.5 -152.5t-98 -100t-137.5 -35.5zM270 85q46 0 77.5 26t48.5 71t17 100q0 59 -28.5 90.5t-78.5 31.5q-45 0 -77 -26t-49 -70.5t-17 -100.5q0 -59 28.5 -90.5
t78.5 -31.5zM229 616q-40 0 -40 31q0 20 12 31.5t33 11.5h247q40 0 40 -31q0 -19 -12 -31t-33 -12h-247z" />
    <glyph glyph-name="uni1E53" unicode="&#x1e53;" horiz-adv-x="576" 
d="M267 -10q-108 0 -169 60t-61 161q0 88 36.5 152.5t98.5 100t137 35.5q108 0 169 -60t61 -161q0 -88 -36.5 -152.5t-98 -100t-137.5 -35.5zM270 85q46 0 77.5 26t48.5 71t17 100q0 59 -28.5 90.5t-78.5 31.5q-45 0 -77 -26t-49 -70.5t-17 -100.5q0 -59 28.5 -90.5
t78.5 -31.5zM396 679q-16 -17 -34 -15t-25 17.5t6 36.5l55 86q14 22 33 24.5t34.5 -8t19 -28.5t-14.5 -36zM225 567q-40 0 -40 31q0 19 11.5 31t33.5 12h239q41 0 41 -31q0 -19 -11.5 -31t-33.5 -12h-240z" />
    <glyph glyph-name="uni1E51" unicode="&#x1e51;" horiz-adv-x="576" 
d="M267 -10q-108 0 -169 60t-61 161q0 88 36.5 152.5t98.5 100t137 35.5q108 0 169 -60t61 -161q0 -88 -36.5 -152.5t-98 -100t-137.5 -35.5zM270 85q46 0 77.5 26t48.5 71t17 100q0 59 -28.5 90.5t-78.5 31.5q-45 0 -77 -26t-49 -70.5t-17 -100.5q0 -59 28.5 -90.5
t78.5 -31.5zM315 681l-62 79q-15 19 -8.5 36t24.5 26t38 4t32 -29l40 -85q11 -22 0 -35.5t-30 -13.5t-34 18zM227 567q-40 0 -40 31q0 19 11.5 31t33.5 12h239q41 0 41 -31q0 -19 -11.5 -31t-33.5 -12h-240z" />
    <glyph glyph-name="uni01EB" unicode="&#x1eb;" horiz-adv-x="576" 
d="M267 -10q-108 0 -169 60t-61 161q0 88 36.5 152.5t98.5 100t137 35.5q108 0 169 -60t61 -161q0 -88 -36.5 -152.5t-98 -100t-137.5 -35.5zM270 85q46 0 77.5 26t48.5 71t17 100q0 59 -28.5 90.5t-78.5 31.5q-45 0 -77 -26t-49 -70.5t-17 -100.5q0 -59 28.5 -90.5
t78.5 -31.5zM281 -195q-54 0 -80.5 26.5t-26.5 65.5q0 96 112 145l34 -42q-31 -13 -49 -34t-18 -47q0 -21 14 -34t37 -13q8 0 16 1t18 4q21 6 29.5 -7t4.5 -30.5t-21 -23.5q-31 -11 -70 -11z" />
    <glyph glyph-name="oslash" unicode="&#xf8;" horiz-adv-x="576" 
d="M131 -29q-10 -14 -24 -15t-25 7.5t-13.5 22.5t8.5 29l24 33q-63 59 -63 164q0 88 36.5 152.5t98.5 99.5t137 35q62 0 109 -21l29 39q11 14 24.5 15t24 -7.5t13 -22.5t-8.5 -29l-24 -32q63 -60 63 -163q0 -88 -36.5 -152.5t-98 -100t-137.5 -35.5q-61 0 -108 20zM152 206
q0 -42 14 -71l196 265q-25 11 -58 11q-71 0 -111.5 -57.5t-40.5 -147.5zM273 78q48 0 82 26.5t52 73t18 106.5q0 40 -13 68l-195 -264q24 -10 56 -10z" />
    <glyph glyph-name="oslashacute" unicode="&#x1ff;" horiz-adv-x="576" 
d="M131 -29q-10 -14 -24 -15t-25 7.5t-13.5 22.5t8.5 29l24 33q-63 59 -63 164q0 88 36.5 152.5t98.5 99.5t137 35q62 0 109 -21l29 39q11 14 24.5 15t24 -7.5t13 -22.5t-8.5 -29l-24 -32q63 -60 63 -163q0 -88 -36.5 -152.5t-98 -100t-137.5 -35.5q-61 0 -108 20zM152 206
q0 -42 14 -71l196 265q-25 11 -58 11q-71 0 -111.5 -57.5t-40.5 -147.5zM273 78q48 0 82 26.5t52 73t18 106.5q0 40 -13 68l-195 -264q24 -10 56 -10zM385 559q-16 -19 -35 -16t-27.5 20t5.5 38l96 147q15 23 35.5 25.5t36.5 -8.5t20 -30t-13 -39z" />
    <glyph glyph-name="otilde" unicode="&#xf5;" horiz-adv-x="576" 
d="M267 -10q-108 0 -169 60t-61 161q0 88 36.5 152.5t98.5 100t137 35.5q108 0 169 -60t61 -161q0 -88 -36.5 -152.5t-98 -100t-137.5 -35.5zM270 85q46 0 77.5 26t48.5 71t17 100q0 59 -28.5 90.5t-78.5 31.5q-45 0 -77 -26t-49 -70.5t-17 -100.5q0 -59 28.5 -90.5
t78.5 -31.5zM182 582q-15 1 -22.5 11t-3.5 26q13 56 46 86.5t77 30.5q25 0 43 -10t33 -23t30 -23t34 -10q20 0 36.5 13t22.5 34q8 27 38 25q15 -1 22.5 -10.5t3.5 -26.5q-13 -56 -46 -86.5t-77 -30.5q-25 0 -43.5 10t-33.5 23t-30 23t-33 10q-19 0 -36 -13t-23 -34
q-8 -27 -38 -25z" />
    <glyph glyph-name="uni1E4D" unicode="&#x1e4d;" horiz-adv-x="576" 
d="M267 -10q-108 0 -169 60t-61 161q0 88 36.5 152.5t98.5 100t137 35.5q108 0 169 -60t61 -161q0 -88 -36.5 -152.5t-98 -100t-137.5 -35.5zM270 85q46 0 77.5 26t48.5 71t17 100q0 59 -28.5 90.5t-78.5 31.5q-45 0 -77 -26t-49 -70.5t-17 -100.5q0 -59 28.5 -90.5
t78.5 -31.5zM397 679q-16 -17 -34 -15t-25.5 17.5t6.5 36.5l55 86q14 21 33 23.5t34.5 -8t19 -28t-14.5 -35.5zM197 547q-14 1 -21 11.5t-1 27.5q26 75 103 75q27 0 51 -11t45 -22t39 -11q16 0 28.5 6t19.5 21q10 22 35 21q14 -1 21 -11.5t1 -27.5q-26 -75 -103 -75
q-27 0 -51 11t-44.5 22t-39.5 11q-16 0 -28.5 -6t-19.5 -21q-10 -22 -35 -21z" />
    <glyph glyph-name="uni1E4F" unicode="&#x1e4f;" horiz-adv-x="576" 
d="M267 -10q-108 0 -169 60t-61 161q0 88 36.5 152.5t98.5 100t137 35.5q108 0 169 -60t61 -161q0 -88 -36.5 -152.5t-98 -100t-137.5 -35.5zM270 85q46 0 77.5 26t48.5 71t17 100q0 59 -28.5 90.5t-78.5 31.5q-45 0 -77 -26t-49 -70.5t-17 -100.5q0 -59 28.5 -90.5
t78.5 -31.5zM266 693q-55 0 -55 41q0 55 70 55q55 0 55 -42q0 -27 -19 -40.5t-51 -13.5zM454 693q-54 0 -54 41q0 55 69 55q55 0 55 -42q0 -27 -19 -40.5t-51 -13.5zM197 547q-14 1 -21 11.5t-1 27.5q26 75 103 75q27 0 51 -11t45 -22t39 -11q16 0 28.5 6t19.5 21
q10 22 35 21q14 -1 21 -11.5t1 -27.5q-26 -75 -103 -75q-27 0 -51 11t-44.5 22t-39.5 11q-16 0 -28.5 -6t-19.5 -21q-10 -22 -35 -21z" />
    <glyph glyph-name="uni022D" unicode="&#x22d;" horiz-adv-x="576" 
d="M267 -10q-108 0 -169 60t-61 161q0 88 36.5 152.5t98.5 100t137 35.5q108 0 169 -60t61 -161q0 -88 -36.5 -152.5t-98 -100t-137.5 -35.5zM270 85q46 0 77.5 26t48.5 71t17 100q0 59 -28.5 90.5t-78.5 31.5q-45 0 -77 -26t-49 -70.5t-17 -100.5q0 -59 28.5 -90.5
t78.5 -31.5zM246 708q-40 0 -40 31q0 20 11.5 31.5t33.5 11.5h239q41 0 41 -31q0 -19 -11.5 -31t-33.5 -12h-240zM197 547q-14 1 -21 11.5t-1 27.5q26 75 103 75q27 0 51 -11t45 -22t39 -11q16 0 28.5 6t19.5 21q10 22 35 21q14 -1 21 -11.5t1 -27.5q-26 -75 -103 -75
q-27 0 -51 11t-44.5 22t-39.5 11q-16 0 -28.5 -6t-19.5 -21q-10 -22 -35 -21z" />
    </font>
</defs>
</svg>
